<?xml version="1.0" encoding="UTF-8" standalone="no"?>
<!DOCTYPE svg PUBLIC "-//W3C//DTD SVG 1.1//EN" "http://www.w3.org/Graphics/SVG/1.1/DTD/svg11.dtd">
<svg xmlns="http://www.w3.org/2000/svg">
<metadata>
This is a custom SVG font generated by IcoMoon.
<iconset id="icomoon" name="IcoMoon" href="http://keyamoon.com/icomoon/" defaultunicode="false"/><author name="Keyamoon" href="http://keyamoon.com/"/><license name="Arbitrary" href="http://keyamoon.com/icomoon/#toLicense"/>
</metadata>
<defs>
<font id="IcoMoon" horiz-adv-x="512">
<font-face units-per-em="512" ascent="480" descent="-32"/>
<missing-glyph horiz-adv-x="512"/>
<glyph unicode="!" d="M 512.00,192.00L 416.00,288.00L 416.00,384.00L 352.00,384.00L 352.00,352.00L 256.00,448.00L0.00,192.00L 64.00,192.00L 64.00,0.00L 224.00,0.00L 224.00,128.00L 288.00,128.00L 288.00,0.00L 448.00,0.00L 448.00,192.00  z" data-tags="home, house"/>
<glyph unicode="#" d="M 256.00,448.00L0.00,192.00L 64.00,192.00L 256.00,384.00L 448.00,192.00L 512.00,192.00   zM 96.00,160.00L 96.00,0.00L 224.00,0.00L 224.00,128.00L 288.00,128.00L 288.00,0.00L 416.00,0.00L 416.00,160.00L 256.00,320.00   z" data-tags="home, house"/>
<glyph unicode="$" d="M 256.00,416.00L0.00,192.00l 64.00,0.00 l0.00-160.00 l 128.00,0.00 l0.00,96.00 l 128.00,0.00 l0.00-96.00 l 128.00,0.00 L 448.00,192.00 l 64.00,0.00 L 256.00,416.00z M 240.00,192.00l-48.00,0.00 l0.00,48.00 l 48.00,0.00 L 240.00,192.00 z M 240.00,272.00l-48.00,0.00 l0.00,48.00 l 48.00,0.00 L 240.00,272.00 z M 320.00,192.00l-48.00,0.00    l0.00,48.00 l 48.00,0.00 L 320.00,192.00 z M 320.00,272.00l-48.00,0.00 l0.00,48.00 l 48.00,0.00 L 320.00,272.00 z" data-tags="home, house"/>
<glyph unicode="%" d="M 255.733,416.00L-0.01,224.00L 53.288,224.00L 255.753,376.00L 458.623,224.00L 511.99,224.00   zM 384.00,64.00L 128.00,64.00L 128.00,224.00L 96.00,224.00L 96.00,32.00L 416.001,32.00L 416.001,224.00L 384.00,224.00   z" data-tags="home, house"/>
<glyph unicode="&amp;" d="M 256.00,448.00L0.00,192.00l 48.00-48.00l 48.00,48.00l 32.00-192.00l 128.00,0.00 l 128.00,0.00 l 32.00,192.00l 48.00-48.00l 48.00,48.00L 256.00,448.00z M 256.00,242.746c-24.994,0.00-45.256,20.26-45.256,45.254   s 20.262,45.255, 45.256,45.255c 24.992,0.00, 45.255-20.262, 45.255-45.255C 301.255,263.006, 280.992,242.746, 256.00,242.746z" data-tags="home, house"/>
<glyph unicode="'" d="M 256.00,448.00L0.00,192.00l 48.00-48.00l 48.00,48.00l 32.00-192.00l 96.00,0.00 l0.00,96.00 l 64.00,0.00 l0.00-96.00 l 96.00,0.00 l 32.00,192.00l 48.00-48.00l 48.00,48.00L 256.00,448.00z M 256.00,242.746   c-24.994,0.00-45.256,20.26-45.256,45.254s 20.262,45.255, 45.256,45.255c 24.992,0.00, 45.255-20.262, 45.255-45.255   C 301.255,263.006, 280.992,242.746, 256.00,242.746z" data-tags="home, house"/>
<glyph unicode="(" d="M 256.00,480.00L0.00,288.00l0.00-96.00 l 64.00,48.00l0.00-240.00 c0.00-17.60, 14.40-32.00, 32.00-32.00l 320.00,0.00 c 17.60,0.00, 32.00,14.40, 32.00,32.00L 448.00,240.00 l 64.00-48.00l0.00,96.00 L 256.00,480.00z M 416.00,0.058  c-0.017-0.02-0.038-0.041-0.058-0.058L 320.00,0.00 L 320.00,160.00 L 192.00,160.00 l0.00-160.00 L 96.058,0.00 c-0.02,0.017-0.041,0.038-0.058,0.058L 96.00,264.00 L 256.00,384.00l 160.00-120.00L 416.00,0.058 z" data-tags="home, house"/>
<glyph unicode=")" d="M 256.00,480.00L0.00,288.00l0.00-96.00 l 64.00,48.00l0.00-240.00 c0.00-17.60, 14.399-32.00, 32.00-32.00l 320.00,0.00 c 17.60,0.00, 32.00,14.40, 32.00,32.00L 448.00,240.00 l 64.00-48.00l0.00,96.00 L 256.00,480.00z M 416.00,0.058   c-0.018-0.02-0.038-0.041-0.059-0.058L 256.00,0.00 L 256.00,160.00 l-96.00,0.00 l0.00-160.00 L 96.058,0.00 c-0.02,0.017-0.041,0.038-0.058,0.058L 96.00,264.00 L 256.00,384.00l 160.00-120.00L 416.00,0.058 zM 288.00,256.00L 352.00,256.00L 352.00,192.00L 288.00,192.00z" data-tags="home, house"/>
<glyph unicode="*" d="M 256.00,448.00L0.00,192.00l 48.00-48.00l 48.00,48.00l0.00-224.00 l 128.00,0.00 l0.00,96.00 l 64.00,0.00 l0.00-96.00 l 128.00,0.00 L 416.00,192.00 l 48.00-48.00l 48.00,48.00L 256.00,448.00z M 116.00-16.00l-4.00,0.00 L 112.00,208.00 l 4.00,4.00L 116.00-16.00 z M 132.00-16.00l-8.00,0.00 L 124.00,220.00 l 8.00,8.00  L 132.00-16.00 z M 148.00-16.00l-8.00,0.00 L 140.00,236.00 l 8.00,8.00L 148.00-16.00 z M 164.00-16.00l-8.00,0.00 L 156.00,252.00 l 8.00,8.00L 164.00-16.00 z M 180.00-16.00l-8.00,0.00 L 172.00,268.00 l 8.00,8.00L 180.00-16.00 z M 196.00-16.00l-8.00,0.00 L 188.00,284.00 l 8.00,8.00L 196.00-16.00 z M 212.00,80.00l-4.00,0.00 l0.00-96.00 l-4.00,0.00 L 204.00,300.00   l 8.00,8.00L 212.00,80.00 z M 228.00,80.00l-8.00,0.00 L 220.00,316.00 l 8.00,8.00L 228.00,80.00 z M 244.00,80.00l-8.00,0.00 L 236.00,332.00 l 8.00,8.00L 244.00,80.00 z M 260.00,80.00l-8.00,0.00 L 252.00,348.00 l 4.00,4.00l 4.00-4.00L 260.00,80.00 z M 276.00,80.00l-8.00,0.00 L 268.00,340.00 l 8.00-8.00L 276.00,80.00 z M 292.00,80.00l-8.00,0.00   L 284.00,324.00 l 8.00-8.00L 292.00,80.00 z M 308.00-16.00l-4.00,0.00 l0.00,96.00 l-4.00,0.00 L 300.00,308.00 l 8.00-8.00L 308.00-16.00 z M 324.00-16.00l-8.00,0.00 L 316.00,292.00 l 8.00-8.00L 324.00-16.00 z M 340.00-16.00l-8.00,0.00 L 332.00,276.00 l 8.00-8.00L 340.00-16.00 z M 356.00-16.00l-8.00,0.00 L 348.00,260.00 l 8.00-8.00L 356.00-16.00 z   M 372.00-16.00l-8.00,0.00 L 364.00,244.00 l 8.00-8.00L 372.00-16.00 z M 388.00-16.00l-8.00,0.00 L 380.00,228.00 l 8.00-8.00L 388.00-16.00 z M 400.00-16.00l-4.00,0.00 L 396.00,212.00 l 4.00-4.00L 400.00-16.00 z" data-tags="home, house, _new"/>
<glyph unicode="+" d="M0.00-32.00l 256.00,0.00 L 256.00,480.00 L0.00,480.00 L0.00-32.00 z M 160.00,416.00l 64.00,0.00 l0.00-64.00 l-64.00,0.00 L 160.00,416.00 z M 160.00,288.00l 64.00,0.00 l0.00-64.00 l-64.00,0.00 L 160.00,288.00 z M 160.00,160.00l 64.00,0.00 l0.00-64.00 l-64.00,0.00 L 160.00,160.00 z M 32.00,416.00l 64.00,0.00 l0.00-64.00 L 32.00,352.00 L 32.00,416.00 z M 32.00,288.00    l 64.00,0.00 l0.00-64.00 L 32.00,224.00 L 32.00,288.00 z M 32.00,160.00l 64.00,0.00 l0.00-64.00 L 32.00,96.00 L 32.00,160.00 zM 288.00,320.00L 512.00,320.00L 512.00,288.00L 288.00,288.00zM 288.00-32.00L 352.00-32.00L 352.00,96.00L 448.00,96.00L 448.00-32.00L 512.00-32.00L 512.00,256.00L 288.00,256.00   z" data-tags="office, home, house, work"/>
<glyph unicode="," d="M 448.00,352.00L 448.00,416.00 L0.00,416.00 l0.00-352.00 c0.00-17.673, 14.327-32.00, 32.00-32.00l 432.00,0.00 c 26.511,0.00, 48.00,21.489, 48.00,48.00L 512.00,352.00 L 448.00,352.00 z M 416.00,64.00L 32.00,64.00 L 32.00,384.00 l 384.00,0.00 L 416.00,64.00 zM 64.00,320.00L 384.00,320.00L 384.00,288.00L 64.00,288.00zM 256.00,256.00L 384.00,256.00L 384.00,224.00L 256.00,224.00zM 256.00,192.00L 384.00,192.00L 384.00,160.00L 256.00,160.00zM 256.00,128.00L 352.00,128.00L 352.00,96.00L 256.00,96.00zM 64.00,256.00L 224.00,256.00L 224.00,96.00L 64.00,96.00z" data-tags="newspaper, pager"/>
<glyph unicode="-" d="M 488.00,456.00c-32.00,32.00-64.00,32.00-96.00,0.00l-8.00-8.00l 96.00-96.00l 8.00,8.00C 520.00,392.00, 520.00,424.00, 488.00,456.00zM 32.00,96.00L0.00-32.00l 128.00,32.00l 320.00,320.00l-96.00,96.00L 32.00,96.00z M 128.00,64.00l-32.00,32.00l 256.00,256.00l 32.00-32.00L 128.00,64.00z" data-tags="pencil, writing, edit, article, blog"/>
<glyph unicode="." d="M 507.332,401.96L 433.96,475.333c-6.224,6.222-16.404,6.222-22.628,0.00L 384.00,448.00l 96.00-96.00l 27.332,27.333    C 513.556,385.556, 513.556,395.738, 507.332,401.96zM 128.00,96.00L 256.00,128.00L 448.00,320.00L 352.00,416.00L 160.00,224.00   zM 416.00,32.00L 64.00,32.00 L 64.00,384.00 l 192.00,0.00 l 64.00,64.00L 32.00,448.00 C 14.40,448.00,0.00,433.60,0.00,416.00l0.00-416.00 c0.00-17.60, 14.399-32.00, 32.00-32.00l 416.00,0.00 c 17.60,0.00, 32.00,14.40, 32.00,32.00L 480.00,288.00 l-64.00-64.00L 416.00,32.00 z" data-tags="pencil, writing, edit, article, blog"/>
<glyph unicode="/" d="M 394.665,458.667L 352.00,480.00L 64.00,191.999L 128.00,191.999   zM 490.665,362.667L 224.00,95.999L 224.00,31.999L 512.00,320.00   zM 432.00,432.00L 160.00,159.999L 160.00,127.999L 192.00,127.999L 464.00,400.00   zM0.00-32.00L 99.556-3.556L 28.446,67.557   zM 128.00,159.999L 54.858,159.999L 42.667,117.333L 149.333,10.667L 192.00,22.856L 192.00,95.999L 128.00,95.999   z" data-tags="pencil, writing, edit, article, blog"/>
<glyph unicode="0" d="M 192.00,160.00L 256.00,192.00L 480.00,416.00L 448.00,448.00L 224.00,224.00  zM 144.65,36.451c-15.816,33.364-42.833,60.381-76.198,76.198l 38.99,129.968L 192.00,288.00L 384.00,480.00l-96.00,0.00 L 96.00,288.00L0.00-32.00l 320.00,96.00l 192.00,192.00   l0.00,96.00 L 320.00,160.00l-45.383-84.559" data-tags="pencil, writing, edit, article, blog"/>
<glyph unicode="1" d="M 320.00,416.00L 64.00,160.00L0.00-32.00L 192.00,32.00L 448.00,288.00  zM 512.00,389.49C 512.00,439.478, 471.478,480.00, 421.49,480.00c-27.789,0.00-52.648-12.528-69.251-32.239L 352.00,448.00l 127.761-127.761   C 499.473,336.842, 512.00,361.701, 512.00,389.49zM 224.00,0.00L 512.00,0.00L 512.00-32.00L 224.00-32.00z" data-tags="pencil, writing, edit, article, blog, _new"/>
<glyph unicode="2" d="M 160.00,384.00c0.00-160.00-96.00-288.00-160.00-352.00l 20.712-20.712l 160.066,159.813C 177.719,177.419, 176.00,184.509, 176.00,192.00c0.00,26.51, 21.49,48.00, 48.00,48.00    s 48.00-21.49, 48.00-48.00s-21.49-48.00-48.00-48.00c-7.329,0.00-14.271,1.648-20.483,4.586L 43.339-11.339L 64.00-32.00c 64.00,64.00, 192.00,160.00, 352.00,160.00l 32.00,160.00L 320.00,416.00    L 160.00,384.00zM 511.999,352.002L 479.999,320.002L 352.002,447.999L 384.002,479.999z" data-tags="pen, writing, edit, article, write, blog"/>
<glyph unicode="3" d="M 258.027,349.974c-21.205-20.571-56.098-55.135-63.634-62.679C 135.58,228.488-2.507,64.675, 0.036-31.965    c 96.64-2.551, 260.449,135.547, 319.263,194.354c 7.544,7.545, 42.108,42.441, 62.673,63.64L 258.027,349.974zM 472.339,377.91l-9.023,9.007L 512.00,427.139L 459.14,480.00l-40.222-48.686l-9.018,9.039    c-27.895,1.631-72.881-25.375-117.215-61.04l 118.63-118.63c 13.414,16.688, 25.524,33.433, 35.421,49.356    c 9.648-36.481-5.979-102.913-117.835-190.941l 14.233-14.232C 448.00,180.292, 498.531,268.983, 466.263,348.23    C 470.452,359.309, 472.834,369.462, 472.339,377.91z" data-tags="pen, writing, edit, article, write, blog"/>
<glyph unicode="4" d="M 118.204,102.768c 70.653,141.97, 174.105,245.833, 246.911,316.348C 249.00,333.397, 173.057,227.84, 128.658,151.369     c-7.865-13.557-15.023-26.652-21.509-39.133c-15.853-1.951-40.303-8.686-56.359-41.516c 11.44,10.145, 33.929,17.793, 44.198,17.258     c-26.268-54.334-38.263-92.582-39.799-97.631c 0.219-1.662, 1.666-9.09, 10.913-22.348c 10.71,38.402, 24.248,74.619, 39.745,108.781     c 4.482-13.184, 11.535-8.035, 13.245-28.842c 6.878,19.064, 3.958,38.328-0.377,53.227     C 118.549,101.748, 118.375,102.25, 118.204,102.768zM 308.721,431.772c-3.789-14.353-6.437-33.412-3.982-43.644c-5.161,5.996-8.369,20.013-9.876,35.526    c-22.766-13.879-46.625-31.122-70.784-52.691c-34.865-31.13-59.549-62.105-77.03-91.46c 1.068-15.398-0.574-32.411, 3.484-49.518    c-6.429,6.83-10.563,13.332-15.339,27.782c-29.685-60.172-30.149-111.377-28.574-139.451    c 50.927,96.656, 141.769,229.074, 290.348,327.041C 323.044,373.40, 201.619,262.93, 121.759,102.842    c 25.601-2.408, 78.902,17.594, 126.803,55.40c-13.358,1.111-26.42,3.168-33.486,5.229c 16.352,0.311, 31.922,1.777, 44.672,4.041    c 32.524,28.184, 61.135,64.786, 74.837,108.305c-17.529-9.97-37.99-19.479-60.389-24.647c 30.80,10.913, 48.639,35.665, 66.709,48.959    C 370.776,423.295, 461.21,480.00, 461.21,480.00S 394.486,479.945, 308.721,431.772z" data-tags="feather, writing, blog, quill"/>
<glyph unicode="5" d="M 160.061,160.00C 96.036,160.00, 117.88,46.86,0.00,21.363c 32.011-21.324, 125.898-39.027, 192.072,10.668    C 249.298,75.006, 224.085,160.00, 160.061,160.00zM 505.965,441.965c-32.009,32.007-110.472-72.027-171.617-107.603c-60.98-37.464-144.033-112.027-96.021-160.037    c 48.01-48.013, 122.571,35.04, 160.036,96.022C 433.938,331.495, 537.973,409.958, 505.965,441.965z" data-tags="brush, art, paint"/>
<glyph unicode="6" d="M 257.54,416.00C 92.994,416.00,0.00,306.648,0.00,226.653c0.00-121.887, 109.354-174.477, 200.308-196.956   C 291.269,7.209, 315.48,48.462, 314.022,96.00c-1.771,57.75, 21.074,62.496, 41.52,60.459C 375.973,154.408, 512.00,122.695, 512.00,214.674   C 512.002,306.648, 422.072,416.00, 257.54,416.00z M 80.00,152.00c-13.255,0.00-24.00,10.744-24.00,24.00s 10.745,24.00, 24.00,24.00s 24.00-10.744, 24.00-24.00S 93.255,152.00, 80.00,152.00z    M 112.00,248.00c-13.255,0.00-24.00,10.745-24.00,24.00s 10.745,24.00, 24.00,24.00s 24.00-10.745, 24.00-24.00S 125.255,248.00, 112.00,248.00z M 176.00,336.00c0.00,17.673, 14.327,32.00, 32.00,32.00   c 17.674,0.00, 32.00-14.327, 32.00-32.00s-14.326-32.00-32.00-32.00C 190.327,304.00, 176.00,318.327, 176.00,336.00z M 256.00,150.724c-30.225,0.00-54.727,18.294-54.727,40.862   c0.00,22.567, 24.502,40.861, 54.727,40.861c 30.226,0.00, 54.727-18.294, 54.727-40.861C 310.727,169.018, 286.226,150.724, 256.00,150.724z    M 352.00,272.00c-26.51,0.00-48.00,21.491-48.00,48.00s 21.49,48.00, 48.00,48.00s 48.00-21.491, 48.00-48.00S 378.51,272.00, 352.00,272.00z" data-tags="color palette, colors, skin"/>
<glyph unicode="7" d="M 490.927,458.928c-70.408,70.408-113.362-55.714-143.066-85.416c-5.507-5.509-10.807-10.807-15.788-15.789l-30.318,30.318   c-6.195,6.197-16.332,6.197-22.53,0.00l-30.274-30.277c-6.197-6.195-6.197-16.332,0.00-22.527l 30.162-30.164L 90.527,116.489   C 58.235,84.195, 30.039,22.278,0.00-7.763c 9.012-9.012, 12.12-12.119, 12.12-12.119s 3.105-3.106, 12.117-12.118   c 30.039,30.039, 91.959,58.234, 124.248,90.527l 188.585,188.583l 30.164-30.164c 6.195-6.194, 16.333-6.194, 22.529,0.00l 30.275,30.276   c 6.195,6.195, 6.195,16.333,0.00,22.529l-30.319,30.317c 4.979,4.983, 10.283,10.283, 15.788,15.791   C 435.214,345.562, 561.337,388.518, 490.927,458.928z M 139.477,67.536c-15.453-15.45-39.155-30.563-62.073-45.177   c-19.462-12.409-38.043-24.262-52.769-36.732l-3.504,3.504l-3.504,3.504c 12.474,14.729, 24.32,33.311, 36.731,52.771   c 14.615,22.92, 29.727,46.619, 45.179,62.07L 288.12,296.062l 39.938-39.939L 139.477,67.536z" data-tags="eyedropper, colors, picker"/>
<glyph unicode="8" d="M 447.97,163.249c-0.006,0.353-0.015,0.701-0.021,1.053c-0.016,0.714-0.035,1.427-0.059,2.14C 442.875,324.266, 256.00,480.00, 256.00,480.00   S 69.123,324.266, 64.11,166.439c-0.022-0.715-0.044-1.426-0.06-2.141c-0.007-0.352-0.015-0.701-0.021-1.053   c-0.018-1.08-0.028-2.162-0.028-3.248c0.00-1.184, 0.014-2.361, 0.035-3.539c 0.002-0.098, 0.003-0.195, 0.007-0.293   C 66.082,51.899, 151.241-32.00, 256.00-32.00c 104.758,0.00, 189.916,83.899, 191.959,188.168c 0.002,0.098, 0.004,0.196, 0.005,0.293   c 0.021,1.178, 0.036,2.357, 0.036,3.539C 448.00,161.086, 447.988,162.168, 447.97,163.249z M 383.975,157.63l-0.004-0.203   c-0.659-33.643-14.266-65.167-38.313-88.774C 321.587,45.017, 289.743,32.00, 256.00,32.00c-6.231,0.00-12.397,0.447-18.462,1.319   c 69.528,41.423, 116.108,117.352, 116.108,204.161c0.00,9.728-0.59,19.317-1.726,28.74c 20.136-36.97, 31.032-71.40, 32.001-101.813   l 0.002-0.072c 0.016-0.474, 0.026-0.946, 0.039-1.422l 0.014-0.724C 383.99,161.461, 384.00,160.73, 384.00,160.00   C 384.00,159.208, 383.99,158.419, 383.975,157.63z" data-tags="droplet, colors, water"/>
<glyph unicode="9" d="M0.00,416.00l0.00-384.00 l 512.00,0.00 L 512.00,416.00 L0.00,416.00 z M 480.00,64.00l-32.00,0.00 l-96.00,144.00l-64.00-48.00L 160.00,320.00L 64.00,64.00L 32.00,64.00 L 32.00,384.00 l 448.00,0.00 L 480.00,64.00 zM 352.00,304.00A48.00,48.00 6300.00 1,0 448.00,304A48.00,48.00 6300.00 1,0 352.00,304z" data-tags="picture, image, photo"/>
<glyph unicode=":" d="M 64.00,352.00l0.00-320.00 l 448.00,0.00 L 512.00,352.00 L 64.00,352.00 z M 480.00,85.333L 416.00,192.00l-72.533-60.444L 288.00,224.00L 96.00,64.00L 96.00,320.00 l 384.00,0.00 L 480.00,85.333 zM 128.00,240.00A48.00,48.00 1260.00 1,0 224.00,240A48.00,48.00 1260.00 1,0 128.00,240zM 448.00,416.00L0.00,416.00L0.00,96.00L 32.00,96.00L 32.00,384.00L 448.00,384.00  z" data-tags="pictures, images, photos, _new"/>
<glyph unicode=";" d="M 416.00,192.113c-32.00,0.00-64.00-32.113-96.00-32.113s-32.00,128.00-96.00,128.00S 96.00,224.00, 64.00,96.00c0.00,0.00, 352.00,0.00, 384.00,0.00   C 448.00,95.999, 448.00,192.113, 416.00,192.113zM0.00,384.00l0.00-352.00 l 512.00,0.00 L 512.00,384.00 L0.00,384.00 z M 480.00,64.00L 32.00,64.00 L 32.00,352.00 l 448.00,0.00 L 480.00,64.00 zM 352.00,272.00A48.00,48.00 6300.00 1,0 448.00,272A48.00,48.00 6300.00 1,0 352.00,272z" data-tags="picture, image, photo"/>
<glyph unicode="&lt;" d="M0.00,384.00l0.00-320.00 l 512.00,0.00 L 512.00,384.00 L0.00,384.00 z M 480.00,160.00l-96.00,96.00l-45.898-68.847L 429.255,96.00L 384.00,96.00 L 224.00,256.00L 32.00,96.00L 32.00,352.00 l 448.00,0.00 L 480.00,160.00 zM 64.00,272.00A48.00,48.00 4500.00 1,0 160.00,272A48.00,48.00 4500.00 1,0 64.00,272z" data-tags="picture, photos, images"/>
<glyph unicode="=" d="M 154.007,208.00A101.993,101.993 6300.00 1,0 357.993,208A101.993,101.993 6300.00 1,0 154.007,208zM 480.00,352.00L 368.00,352.00 c-8.00,32.00-16.00,64.00-48.00,64.00L 192.00,416.00 c-32.00,0.00-40.00-32.00-48.00-64.00L 32.00,352.00 c-17.60,0.00-32.00-14.40-32.00-32.00l0.00-256.00 c0.00-17.60, 14.40-32.00, 32.00-32.00l 448.00,0.00    c 17.60,0.00, 32.00,14.40, 32.00,32.00L 512.00,320.00 C 512.00,337.60, 497.60,352.00, 480.00,352.00z M 256.00,64.00c-79.529,0.00-144.00,64.471-144.00,144.00c0.00,79.529, 64.471,144.00, 144.00,144.00   c 79.529,0.00, 144.00-64.471, 144.00-144.00C 400.00,128.471, 335.53,64.00, 256.00,64.00z M 480.00,288.00l-64.00,0.00 l0.00,32.00 l 64.00,0.00 L 480.00,288.00 z" data-tags="camera, photo, image, picture"/>
<glyph unicode="&gt;" d="M 256.00,320.00c-70.692,0.00-128.00-57.308-128.00-128.00c0.00-70.691, 57.308-128.00, 128.00-128.00c 70.689,0.00, 128.00,57.309, 128.00,128.00   C 384.00,262.692, 326.692,320.00, 256.00,320.00z M 256.00,96.00c-53.021,0.00-96.00,42.98-96.00,96.00c0.00,53.02, 42.979,96.00, 96.00,96.00c 53.019,0.00, 96.00-42.98, 96.00-96.00   C 352.00,138.98, 309.019,96.00, 256.00,96.00zM 480.00,384.00L 373.333,384.00 L 352.00,448.00L 160.00,448.00 l-21.333-64.00L 32.00,384.00 c-17.60,0.00-32.00-14.40-32.00-32.00l0.00-320.00 c0.00-17.60, 14.40-32.00, 32.00-32.00l 448.00,0.00 c 17.60,0.00, 32.00,14.40, 32.00,32.00L 512.00,352.00    C 512.00,369.60, 497.60,384.00, 480.00,384.00z M 480.00,32.00L 32.00,32.00 L 32.00,352.00 l 128.00,0.00 l 21.333,64.00l 149.333,0.00 L 352.00,352.00l 128.00,0.00 L 480.00,32.00 z" data-tags="camera, photo, image, picture"/>
<glyph unicode="?" d="M 480.00,352.00l-32.00,0.00 L 448.00,384.00 L 288.00,384.00 l0.00-32.00 L 32.00,352.00 c-17.60,0.00-32.00-14.40-32.00-32.00l0.00-256.00 c0.00-17.60, 14.40-32.00, 32.00-32.00l 448.00,0.00 c 17.60,0.00, 32.00,14.40, 32.00,32.00L 512.00,320.00    C 512.00,337.60, 497.60,352.00, 480.00,352.00z M 256.00,64.00c-70.692,0.00-128.00,57.307-128.00,128.00c0.00,70.692, 57.308,128.00, 128.00,128.00c 70.693,0.00, 128.00-57.308, 128.00-128.00   C 384.00,121.307, 326.694,64.00, 256.00,64.00zM 192.00,192.00A64.00,64.00 4140.00 1,0 320.00,192A64.00,64.00 4140.00 1,0 192.00,192z" data-tags="camera, photo, image, picture"/>
<glyph unicode="@" d="M 416.00,448.00L 96.00,448.00 c-35.20,0.00-64.00-28.80-64.00-64.00l0.00-320.00 c0.00-35.20, 28.80-64.00, 64.00-64.00l 320.00,0.00 c 35.20,0.00, 64.00,28.80, 64.00,64.00L 480.00,384.00 C 480.00,419.20, 451.20,448.00, 416.00,448.00z   M 336.00,192.00c0.00-44.112-35.888-80.00-80.00-80.00s-80.00,35.888-80.00,80.00c0.00,26.142, 12.605,49.393, 32.056,64.00l 95.889,0.00 C 323.395,241.393, 336.00,218.142, 336.00,192.00  z M 160.00,384.00l 32.00,0.00 l0.00-64.00 l-32.00,0.00 L 160.00,384.00 z M 96.00,384.00l 32.00,0.00 l0.00-64.00 L 96.00,320.00 L 96.00,384.00 z M 416.00,64.114c-0.033-0.039-0.075-0.081-0.114-0.114L 256.00,64.00 L 96.114,64.00   c-0.04,0.033-0.081,0.075-0.114,0.114L 96.00,256.00 l 49.128,0.00 C 134.237,237.172, 128.00,215.315, 128.00,192.00c0.00-70.692, 57.308-128.00, 128.00-128.00  s 128.00,57.308, 128.00,128.00c0.00,23.315-6.236,45.172-17.128,64.00L 416.00,256.00 L 416.00,64.114 z" data-tags="camera, photo, image, picture, _new"/>
<glyph unicode="A" d="M 155.755,448.451l-13.09-340.294c-17.465,8.962-39.377,12.84-62.368,9.578c-49.574-7.021-85.271-44.418-79.729-83.517  c 5.543-39.102, 50.223-65.101, 99.795-58.078c 43.996,6.235, 77.021,36.395, 80.022,70.43l 0.01-0.019c 0.006,0.077, 0.011,0.193, 0.018,0.28  c 0.073,0.865, 0.115,1.741, 0.147,2.611c 1.846,35.143, 13.148,302.082, 13.148,302.082l 278.355,28.679l-12.572-240.41  c-17.863,9.942-40.822,14.371-64.964,10.95c-49.574-7.028-85.268-44.417-79.726-83.521c 5.541-39.098, 50.221-65.102, 99.795-58.071  c 44.933,6.36, 78.41,37.682, 80.166,72.604l 0.021,0.021C 495.742,97.752, 512.00,473.005, 512.00,473.005L 155.755,448.451z" data-tags="music, song, audio"/>
<glyph unicode="B" d="M 406.079,332.794c-43.525,61.105-39.44,17.957-81.604,139.842L 279.886,480.00l-49.609-366.475  c-111.816,63.979-182.336-1.734-164.492-84.443c 9.46-43.856, 80.716-85.137, 150.90-44.39c 33.171,19.945, 43.836,52.11, 48.07,74.919  l 35.438,271.926c 126.445-111.487, 86.071-178.946, 59.925-256.622C 413.867,97.082, 498.058,194.859, 406.079,332.794z" data-tags="music, song, audio"/>
<glyph unicode="C" d="M0.00,480.00l0.00-512.00 l 480.00,0.00 L 480.00,480.00 L0.00,480.00 z M 96.00,0.00L 32.00,0.00 L 32.00,448.00 l 32.00,0.00 l0.00-320.00 l 32.00,0.00 L 96.00,0.00 z M 224.001,0.00l-96.00,0.00 L 128.001,128.00 l 32.00,0.00 L 160.001,448.00 l 32.00,0.00 l0.00-320.00 l 32.00,0.00 L 224.001,0.00 z M 352.00,0.00l-96.00,0.00 L 256.00,128.00 l 32.00,0.00 L 288.00,448.00 l 32.00,0.00 l0.00-320.00   l 32.00,0.00 L 352.00,0.00 z M 448.00,0.00l-64.00,0.00 L 384.00,128.00 l 32.00,0.00 L 416.00,448.00 l 32.00,0.00 L 448.00,0.00 z" data-tags="piano, music, song, audio"/>
<glyph unicode="D" d="M 501.789,469.78c-5.642,5.642-19.729,12.694-25.431,9.359l-59.661-65.626l-0.96-7.355L 261.035,257.087  c-40.58,33.756-69.606,28.222-88.80,12.197c-18.266-15.248-25.995-44.368-36.123-53.369c-20.456-18.177-68.458-2.578-111.642-49.275  c-49.97-54.037-14.277-108.214, 25.841-148.331c 40.118-40.116, 94.295-75.81, 148.333-25.84c 46.699,43.183, 31.09,91.193, 49.267,111.648  c 9.001,10.129, 38.13,17.848, 53.378,36.113c 16.026,19.196, 21.56,48.225-12.205,88.809L 438.156,383.74l 7.355,0.96L 511.14,444.36  C 514.474,450.062, 507.432,464.139, 501.789,469.78z M 166.409,48.862l-6.286-6.286c-1.765-1.765-4.15-2.242-5.327-1.065l-81.289,81.287  c-1.177,1.177-0.70,3.562, 1.065,5.327l 6.286,6.286c 1.765,1.765, 4.15,2.241, 5.327,1.065l 81.289-81.288  C 168.652,53.013, 168.175,50.627, 166.409,48.862z M 233.012,140.427c-15.394-15.394-40.353-15.394-55.747,0.00  s-15.394,40.353,0.00,55.746s 40.353,15.394, 55.747,0.00S 248.406,155.82, 233.012,140.427z" data-tags="guitar, rock, music, song"/>
<glyph unicode="E" d="M 96.00,190.857l0.00-221.715 c 5.227-0.748, 10.567-1.143, 16.00-1.143l 16.00,0.00 L 128.00,192.00 l-16.00,0.00 C 106.567,192.00, 101.227,191.605, 96.00,190.857zM 384.00,192.00l0.00-224.00 l 16.00,0.00 c 5.434,0.00, 10.773,0.395, 16.00,1.143L 416.00,190.857 c-5.227,0.748-10.566,1.143-16.00,1.143L 384.00,192.00 zM 512.00,224.00C 512.00,365.385, 397.385,480.00, 256.00,480.00S0.00,365.385,0.00,224.00c0.00-30.709, 5.414-60.153, 15.328-87.437C 5.592,119.962,0.00,100.637,0.00,80.00   c0.00-44.677, 26.163-83.239, 64.00-101.216L 64.00,181.216 c-10.063-4.781-19.29-11.03-27.429-18.452C 33.575,177.374, 32.00,192.503, 32.00,208.00   C 32.00,331.712, 132.288,432.00, 256.00,432.00s 224.00-100.288, 224.00-224.00c0.00-15.497-1.574-30.626-4.571-45.236c-8.14,7.422-17.365,13.671-27.429,18.452   l0.00-202.432 c 37.838,17.977, 64.00,56.539, 64.00,101.216c0.00,20.637-5.592,39.962-15.328,56.563C 506.586,163.847, 512.00,193.291, 512.00,224.00z" data-tags="headset, music, song, audio"/>
<glyph unicode="F" d="M 256.001,416.00C 132.288,416.00, 32.00,315.712, 32.00,192.00l0.00-96.00 l 32.00,0.00 l0.00,96.00 c0.00,106.039, 85.961,160.00, 192.00,160.00s 192.00-53.961, 192.00-160.00l0.00-96.00 l 32.00,0.00 l0.00,96.00    C 480.001,315.712, 379.712,416.00, 256.001,416.00zM 138.667,192.00l-21.333,0.00 C 105.60,192.00, 96.00,182.40, 96.00,170.667l0.00-117.334 C 96.00,41.601, 105.60,32.00, 117.333,32.00l 21.333,0.00    C 150.40,32.00, 160.00,41.601, 160.00,53.333L 160.00,170.667 C 160.00,182.40, 150.40,192.00, 138.667,192.00zM 394.666,192.00l-21.334,0.00 c-11.731,0.00-21.331-9.60-21.331-21.333l0.00-117.334 c0.00-11.732, 9.60-21.333, 21.331-21.333l 21.334,0.00    C 406.40,32.00, 416.00,41.601, 416.00,53.333L 416.00,170.667 C 416.001,182.40, 406.401,192.00, 394.666,192.00z" data-tags="headset, music, song, audio"/>
<glyph unicode="G" d="M 490.594,399.946C 418.778,410.271, 339.428,416.00, 256.001,416.00c-83.43,0.00-162.778-5.729-234.597-16.054  C 7.639,346.083,0.00,286.571,0.00,224.00c0.00-62.57, 7.639-122.083, 21.404-175.945C 93.223,37.729, 172.572,32.00, 256.001,32.00  c 83.427,0.00, 162.776,5.729, 234.593,16.055C 504.36,101.917, 512.00,161.43, 512.00,224.00C 512.00,286.571, 504.36,346.083, 490.594,399.946z   M 192.001,128.00L 192.001,320.00 l 160.00-96.00L 192.001,128.00z" data-tags="play, video, movie"/>
<glyph unicode="H" d="M 192.00,331.075L 192.00,180.925L 322.033,255.996  zM0.00,384.00l0.00-320.00 l 512.00,0.00 L 512.00,384.00 L0.00,384.00 z M 480.00,96.00L 32.00,96.00 l0.00,32.00 l 448.00,0.00 L 480.00,96.00 z M 480.00,160.00L 32.00,160.00 L 32.00,352.00 l 448.00,0.00 L 480.00,160.00 z" data-tags="play, video, movie"/>
<glyph unicode="I" d="M 39.151,348.73L 471.873,464.672L 496.718,371.946L 63.996,256.004zM 64.00,256.00l0.00-288.00 l 448.00,0.00 L 512.00,256.00 L 64.00,256.00 z M 224.00,32.00L 224.00,192.00 l 128.00-80.00L 224.00,32.00z" data-tags="movie, play, media, video, _new"/>
<glyph unicode="J" d="M 32.00,256.00l0.00-288.00 l 480.00,0.00 L 512.00,256.00 L 32.00,256.00 z M 480.00,160.00L 64.00,160.00 l0.00,32.00 l 416.00,0.00 L 480.00,160.00 zM 501.886,386.022L 482.283,480.00L 12.397,381.983L 32.00,288.006L 501.886,386.022z M 426.031,451.921l 43.855,9.148l 13.069-62.652   l-81.447-16.989L 426.031,451.921z M 300.729,425.784l 62.651,13.069l-24.523-70.493l-62.65-13.069L 300.729,425.784z M 175.425,399.646   l 62.652,13.069l-24.522-70.493l-62.651-13.069L 175.425,399.646z M 112.774,386.577l-24.522-70.493l-43.856-9.148l-13.069,62.651   L 112.774,386.577z" data-tags="movie, video"/>
<glyph unicode="K" d="M 256.00,480.00C 114.615,480.00,0.00,365.385,0.00,224.00s 114.612-256.00, 256.00-256.00c 141.385,0.00, 256.00,114.615, 256.00,256.00S 397.385,480.00, 256.00,480.00z M 256.00,269.255  c 24.992,0.00, 45.255-20.261, 45.255-45.255S 280.992,178.745, 256.00,178.745c-24.994,0.00-45.256,20.262-45.256,45.255  C 210.744,248.994, 231.007,269.255, 256.00,269.255z M 115.319,121.32c-29.044-9.438-60.239,6.459-69.677,35.503  c-9.437,29.045, 6.458,60.239, 35.502,69.678c 29.045,9.438, 60.24-6.457, 69.677-35.503C 160.258,161.954, 144.363,130.759, 115.319,121.32  z M 190.994,314.645c-24.706-17.951-59.287-12.475-77.236,12.232c-17.95,24.707-12.475,59.287, 12.233,77.238  c 24.705,17.951, 59.285,12.474, 77.236-12.233S 215.701,332.596, 190.994,314.645z M 256.00,3.989c-30.539,0.00-55.297,24.757-55.297,55.296  s 24.758,55.296, 55.297,55.296c 30.537,0.00, 55.296-24.757, 55.296-55.296S 286.538,3.989, 256.00,3.989z M 321.004,314.645  c-24.707,17.951-30.186,52.53-12.234,77.236c 17.951,24.707, 52.531,30.186, 77.238,12.234c 24.707-17.952, 30.184-52.531, 12.23-77.238  C 380.29,302.17, 345.711,296.693, 321.004,314.645z M 396.681,121.32c-29.044,9.438-44.938,40.634-35.502,69.678  c 9.437,29.046, 40.633,44.939, 69.678,35.503c 29.045-9.438, 44.938-40.633, 35.502-69.678  C 456.922,127.779, 425.726,111.884, 396.681,121.32z" data-tags="movie, film, video, tape"/>
<glyph unicode="L" d="M0.00,480.00l0.00-512.00 l 512.00,0.00 L 512.00,480.00 L0.00,480.00 z M 320.00,448.00l 64.00,0.00 l0.00-64.00 l-64.00,0.00 L 320.00,448.00 z M 224.00,448.00l 64.00,0.00 l0.00-64.00 l-64.00,0.00 L 224.00,448.00 z M 128.00,448.00l 64.00,0.00 l0.00-64.00 l-64.00,0.00 L 128.00,448.00 z M 32.00,448.00l 64.00,0.00 l0.00-64.00 L 32.00,384.00 L 32.00,448.00 z M 32.00,352.00l 192.00,0.00 l0.00-256.00   L 32.00,96.00 L 32.00,352.00 z M 96.00,0.00L 32.00,0.00 l0.00,64.00 l 64.00,0.00 L 96.00,0.00 z M 192.00,0.00l-64.00,0.00 l0.00,64.00 l 64.00,0.00 L 192.00,0.00 z M 288.00,0.00l-64.00,0.00 l0.00,64.00 l 64.00,0.00 L 288.00,0.00 z M 384.00,0.00l-64.00,0.00 l0.00,64.00 l 64.00,0.00 L 384.00,0.00 z M 480.00,0.00l-64.00,0.00 l0.00,64.00 l 64.00,0.00   L 480.00,0.00 z M 480.00,96.00L 256.00,96.00 L 256.00,352.00 l 224.00,0.00 L 480.00,96.00 z M 480.00,384.00l-64.00,0.00 L 416.00,448.00 l 64.00,0.00 L 480.00,384.00 z" data-tags="film, video, movie, tape"/>
<glyph unicode="M" d="M0.00,416.00l0.00-384.00 l 512.00,0.00 L 512.00,416.00 L0.00,416.00 z M 96.00,64.00L 32.00,64.00 l0.00,64.00 l 64.00,0.00 L 96.00,64.00 z M 96.00,192.00L 32.00,192.00 l0.00,64.00 l 64.00,0.00 L 96.00,192.00 z M 96.00,320.00L 32.00,320.00 L 32.00,384.00 l 64.00,0.00 L 96.00,320.00 z M 384.00,64.00L 128.00,64.00 L 128.00,384.00 l 256.00,0.00 L 384.00,64.00 z   M 480.00,64.00l-64.00,0.00 l0.00,64.00 l 64.00,0.00 L 480.00,64.00 z M 480.00,192.00l-64.00,0.00 l0.00,64.00 l 64.00,0.00 L 480.00,192.00 z M 480.00,320.00l-64.00,0.00 L 416.00,384.00 l 64.00,0.00 L 480.00,320.00 z" data-tags="film, video, movie, tape"/>
<glyph unicode="N" d="M0.00,416.00l0.00-384.00 l 512.00,0.00 L 512.00,416.00 L0.00,416.00 z M 96.00,64.00L 32.00,64.00 l0.00,64.00 l 64.00,0.00 L 96.00,64.00 z M 96.00,192.00L 32.00,192.00 l0.00,64.00 l 64.00,0.00 L 96.00,192.00 z M 96.00,320.00L 32.00,320.00 L 32.00,384.00 l 64.00,0.00 L 96.00,320.00 z M 384.00,64.00L 128.00,64.00 L 128.00,384.00 l 256.00,0.00 L 384.00,64.00 z    M 480.00,64.00l-64.00,0.00 l0.00,64.00 l 64.00,0.00 L 480.00,64.00 z M 480.00,192.00l-64.00,0.00 l0.00,64.00 l 64.00,0.00 L 480.00,192.00 z M 480.00,320.00l-64.00,0.00 L 416.00,384.00 l 64.00,0.00 L 480.00,320.00 zM 192.00,320.00L 192.00,128.00L 320.00,224.00  z" data-tags="film, video, movie, tape, play"/>
<glyph unicode="O" d="M 192.00,336.00A80.00,80.00 4500.00 1,0 352.00,336A80.00,80.00 4500.00 1,0 192.00,336zM0.00,336.00A80.00,80.00 4500.00 1,0 160.00,336A80.00,80.00 4500.00 1,0 0.00,336zM 384.00,176.00l0.00,48.00 c0.00,17.60-14.40,32.00-32.00,32.00l-80.00,0.00 L 80.00,256.00 L 32.00,256.00 c-17.60,0.00-32.00-14.40-32.00-32.00l0.00-160.00 c0.00-17.60, 14.40-32.00, 32.00-32.00l 320.00,0.00 c 17.60,0.00, 32.00,14.40, 32.00,32.00   l0.00,48.00 l 128.00-80.00L 512.00,256.00 L 384.00,176.00z M 320.00,96.00L 64.00,96.00 l0.00,96.00 l 256.00,0.00 L 320.00,96.00 z" data-tags="camera, video, media"/>
<glyph unicode="P" d="M 288.00,352.00L 64.00,352.00 c-17.601,0.00-32.00-14.399-32.00-32.00l0.00-192.00 c0.00-17.60, 14.399-32.00, 32.00-32.00l 224.00,0.00 c 17.601,0.00, 32.00,14.40, 32.00,32.00L 320.00,320.00    C 320.00,337.601, 305.601,352.00, 288.00,352.00zM 352.00,242.286L 352.00,205.715L 480.00,96.00L 480.00,352.00  z" data-tags="camera, video, media"/>
<glyph unicode="Q" d="M 320.00,384.00L 64.00,384.00 c-35.20,0.00-64.00-28.80-64.00-64.00l0.00-192.00 c0.00-35.20, 28.80-64.00, 64.00-64.00l 256.00,0.00 c 35.20,0.00, 64.00,28.80, 64.00,64.00L 384.00,320.00 C 384.00,355.20, 355.20,384.00, 320.00,384.00zM 416.00,256.00L 416.00,192.00L 512.00,96.00L 512.00,352.00  z" data-tags="camera, video, media"/>
<glyph unicode="R" d="M 432.00,384.00L 176.00,384.00 c-44.00,0.00-80.00-36.00-80.00-80.00l0.00-256.00 c0.00-44.00, 36.00-80.00, 80.00-80.00l 256.00,0.00 c 44.00,0.00, 80.00,36.00, 80.00,80.00L 512.00,304.00 C 512.00,348.00, 476.00,384.00, 432.00,384.00z M 176.00,0.00   c-26.51,0.00-48.00,21.49-48.00,48.00s 21.49,48.00, 48.00,48.00s 48.00-21.49, 48.00-48.00S 202.51,0.00, 176.00,0.00z M 176.00,256.00c-26.51,0.00-48.00,21.49-48.00,48.00s 21.49,48.00, 48.00,48.00   s 48.00-21.49, 48.00-48.00S 202.51,256.00, 176.00,256.00z M 304.00,128.00c-26.51,0.00-48.00,21.49-48.00,48.00s 21.49,48.00, 48.00,48.00s 48.00-21.49, 48.00-48.00S 330.51,128.00, 304.00,128.00z    M 432.00,0.00c-26.51,0.00-48.00,21.49-48.00,48.00s 21.49,48.00, 48.00,48.00s 48.00-21.49, 48.00-48.00S 458.51,0.00, 432.00,0.00z M 432.00,256.00c-26.51,0.00-48.00,21.49-48.00,48.00   s 21.49,48.00, 48.00,48.00s 48.00-21.49, 48.00-48.00S 458.51,256.00, 432.00,256.00zM 414.38,416.00C 406.915,452.402, 374.525,480.00, 336.00,480.00L 80.00,480.00 C 36.00,480.00,0.00,444.00,0.00,400.00l0.00-256.00 c0.00-38.524, 27.598-70.915, 64.00-78.38L 64.00,384.00    c0.00,17.60, 14.40,32.00, 32.00,32.00L 414.38,416.00 z" data-tags="dice, game, random, chance"/>
<glyph unicode="S" d="M 160.00,320.00L 128.00,320.00L 128.00,288.00L 96.00,288.00L 96.00,256.00L 128.00,256.00L 128.00,224.00L 160.00,224.00L 160.00,256.00L 192.00,256.00L 192.00,288.00L 160.00,288.00  zM 320.00,296.00A24.00,24.00 6300.00 1,0 368.00,296A24.00,24.00 6300.00 1,0 320.00,296zM 368.00,248.00A24.00,24.00 6300.00 1,0 416.00,248A24.00,24.00 6300.00 1,0 368.00,248zM 369.736,394.074c-58.11,0.00-67.181-34.417-113.735-34.421c-46.555,0.004-55.625,34.421-113.735,34.421   C 48.53,394.074,0.00,279.337,0.00,197.261c0.00-77.651, 7.296-134.155, 36.344-142.085c 29.063-7.958, 66.085,23.379, 102.175,57.36   c 36.081,33.981, 42.174,31.771, 71.229,31.771L 256.00,143.285l 46.252,1.021c 29.056,0.00, 35.148,2.211, 71.229-31.771   c 36.09-33.981, 73.111-65.318, 102.175-57.36C 504.704,63.105, 512.00,119.609, 512.00,197.261C 512.00,279.337, 463.471,394.074, 369.736,394.074z    M 144.00,192.00c-44.183,0.00-80.00,35.817-80.00,80.00s 35.817,80.00, 80.00,80.00s 80.00-35.817, 80.00-80.00S 188.183,192.00, 144.00,192.00z M 368.00,192.00c-44.183,0.00-80.00,35.817-80.00,80.00   s 35.817,80.00, 80.00,80.00s 80.00-35.817, 80.00-80.00S 412.183,192.00, 368.00,192.00z" data-tags="gamepad, video game, controller, joystick"/>
<glyph unicode="T" d="M 400.00,320.00L 112.00,320.00 C 50.144,320.00,0.00,269.856,0.00,208.00c0.00-61.855, 50.144-112.00, 112.00-112.00c 44.677,0.00, 83.237,26.162, 101.215,64.00l 85.567,0.00   c 17.978-37.838, 56.538-64.00, 101.218-64.00c 61.854,0.00, 112.00,50.145, 112.00,112.00C 512.00,269.856, 461.857,320.00, 400.00,320.00z M 168.89,192.00L 128.00,192.00 l0.00-40.891 L 96.00,151.109 L 96.00,192.00   L 55.11,192.00 l0.00,32.00 L 96.00,224.00 l0.00,40.89 l 32.00,0.00 L 128.00,224.00 l 40.89,0.00 L 168.89,192.00 z M 368.00,151.109c-13.747,0.00-24.892,11.145-24.892,24.891s 11.145,24.891, 24.892,24.891  c 13.743,0.00, 24.89-11.145, 24.89-24.891S 381.743,151.109, 368.00,151.109z M 432.00,215.109c-13.747,0.00-24.892,11.144-24.892,24.891  s 11.145,24.89, 24.892,24.89c 13.743,0.00, 24.891-11.144, 24.891-24.89S 445.743,215.109, 432.00,215.109z" data-tags="gamepad, video game, controller, joystick"/>
<glyph unicode="U" d="M 482.365,390.598C 435.414,445.323, 365.76,480.00, 288.00,480.00C 146.615,480.00, 32.00,365.385, 32.00,224.00s 114.615-256.00, 256.00-256.00  c 77.76,0.00, 147.414,34.678, 194.364,89.402L 320.00,224.00L 482.365,390.598z M 352.00,419.699c 19.716,0.00, 35.699-15.982, 35.699-35.699  c0.00-19.716-15.983-35.699-35.699-35.699S 316.301,364.284, 316.301,384.00C 316.301,403.716, 332.284,419.699, 352.00,419.699z" data-tags="pacman, game, arcade"/>
<glyph unicode="V" d="M 408.785,305.925C 312.002,377.854, 278.652,435.434, 256.002,479.999l0.00,0.00C 256.00,479.999, 256.00,480.00, 256.00,480.00l0.00-0.001   c-22.648-44.565-56.00-102.146-152.783-174.074c-165.018-122.643-9.688-293.834, 126.879-199.612  c-8.898-58.465-39.265-101.086-70.104-119.441L 159.992-32.00 l 96.008,0.00 l 96.008,0.00 l0.00,18.87 c-30.841,18.354-61.205,60.977-70.106,119.442  C 418.47,12.089, 573.802,183.282, 408.785,305.925z" data-tags="spades, bet, game, gamble, cards"/>
<glyph unicode="W" d="M 393.416,283.614c-29.516,0.00-56.043-12.298-74.926-32.347c-7.998-8.492-21.881-18.556-36.90-27.405  c 7.055,26.934, 29.338,60.85, 44.814,75.728c 19.82,19.085, 31.992,45.915, 31.992,75.75C 358.399,432.787, 312.658,479.388, 256.002,480.00  c-56.66-0.611-102.398-47.213-102.398-104.659c0.00-29.836, 12.172-56.665, 31.993-75.75c 15.477-14.878, 37.76-48.794, 44.814-75.728  c-15.021,8.85-28.903,18.913-36.90,27.405c-18.884,20.049-45.41,32.347-74.925,32.347c-57.193,0.00-103.54-46.832-103.54-104.664  c0.00-57.819, 46.346-104.669, 103.54-104.669c 29.521,0.00, 56.041,12.678, 74.925,32.726c 8.402,8.936, 23.222,20.069, 39.146,29.316  c-1.501-73.846-36.766-128.084-72.659-149.453L 159.998-32.00 l 96.005,0.00 l 96.002,0.00 l0.00,18.87 c-35.896,21.368-71.16,75.608-72.66,149.453  c 15.926-9.247, 30.744-20.384, 39.146-29.316c 18.883-20.047, 45.404-32.726, 74.926-32.726c 57.193,0.00, 103.539,46.85, 103.539,104.669  C 496.955,236.782, 450.61,283.614, 393.416,283.614z" data-tags="clubs, bet, game, gamble, cards"/>
<glyph unicode="X" d="M 256.00,480.00L 96.00,224.00L 256.00-32.00L 416.00,224.00 z" data-tags="diamonds, bet, game, gamble, cards"/>
<glyph unicode="Y" d="M 487.024,347.25c-16.872,16.872-40.057,24.976-65.75,24.976c-34.444,0.00-73.404-14.558-107.766-42.062   c-8.132,24.908-23.24,43.758-41.509,50.811L 271.999,416.00 l 48.00,0.00 L 319.999,448.00 l-48.00,0.00 L 271.999,480.00 l-32.00,0.00 l0.00-32.00 l-48.00,0.00 l0.00-32.00 l 48.00,0.00 l0.00-35.024 c-18.268-7.053-33.376-25.902-41.508-50.809   c-34.361,27.503-73.321,42.062-107.765,42.06c-25.693-0.002-48.879-8.104-65.75-24.976   c-43.739-43.739-28.542-129.85, 33.941-192.333C 70.596,143.239, 83.103,133.224, 96.00,124.925l0.00-46.882    C 139.829,69.258, 195.454,64.00, 256.00,64.00s 116.171,5.258, 160.00,14.043l0.00,46.88 c 12.897,8.298, 25.404,18.314, 37.083,29.993   C 515.566,217.40, 530.763,303.512, 487.024,347.25z M 81.546,290.678c 0.539,0.36, 3.423,1.548, 9.181,1.549l 0.006,0.00 l 0.002,0.00    c 15.925,0.00, 43.814-9.293, 70.005-35.484c 17.287-17.287, 29.66-38.181, 33.948-57.326c 3.059-13.66, 0.767-20.748-0.007-21.868   c-0.536-0.359-3.416-1.549-9.18-1.549c-15.928,0.00-43.822,9.294-70.015,35.486c-17.288,17.289-29.662,38.185-33.948,57.33   C 78.48,282.472, 80.772,289.557, 81.546,290.678z M 430.461,268.81c-4.287-19.145-16.66-40.039-33.946-57.324   C 370.322,185.293, 342.429,176.00, 326.50,176.00c-5.762,0.00-8.644,1.188-9.18,1.548c-0.773,1.119-3.066,8.204-0.009,21.862   c 4.286,19.146, 16.66,40.041, 33.948,57.33c 26.192,26.192, 54.087,35.486, 70.015,35.486c 5.764,0.00, 8.645-1.188, 9.18-1.548   C 431.228,289.558, 433.521,282.47, 430.461,268.81zM 96.00,29.168l0.00-47.125 C 139.829-26.742, 195.454-32.00, 256.00-32.00s 116.171,5.258, 160.00,14.043l0.00,47.125    C 369.086,20.543, 314.02,16.00, 256.00,16.00S 142.914,20.543, 96.00,29.168z" data-tags="king, chess, _new"/>
<glyph unicode="Z" d="M 256.00,0.00c-57.294,0.00-112.881,4.967-156.521,13.984c-1.169,0.241-2.328,0.487-3.479,0.734l0.00-32.676    C 139.829-26.742, 195.454-32.00, 256.00-32.00s 116.171,5.258, 160.00,14.043l0.00,32.676 c-1.151-0.247-2.31-0.493-3.479-0.734   C 368.882,4.967, 313.295,0.00, 256.00,0.00zM 384.00,49.003L 384.00,64.00 l-16.00,32.00L 144.00,96.00 l-16.00-32.00l0.00-14.997 c 37.655-5.446, 81.37-8.564, 128.00-8.564   C 302.631,40.438, 346.345,43.557, 384.00,49.003zM 500.754,339.172c-14.997,14.997-39.311,14.997-54.307,0.00c-12.725-12.724-14.646-32.154-5.776-46.911l-97.661-58.597   l 19.253,90.858c 16.84-3.581, 34.585,4.562, 42.474,20.735c 9.297,19.062, 1.381,42.05-17.68,51.347   c-19.062,9.297-42.051,1.381-51.348-17.681c-7.889-16.174-3.38-35.171, 9.811-46.236l-59.104-70.348l-21.101,84.403   c 16.705,4.163, 29.085,19.261, 29.085,37.256c0.00,21.208-17.192,38.40-38.399,38.40c-21.208,0.00-38.40-17.192-38.40-38.40   c0.00-17.995, 12.38-33.093, 29.086-37.256l-21.101-84.403l-59.104,70.348c 13.19,11.065, 17.699,30.062, 9.811,46.236   c-9.297,19.062-32.286,26.978-51.348,17.681c-19.061-9.297-26.977-32.286-17.68-51.347c 7.888-16.174, 25.634-24.316, 42.474-20.735   l 19.252-90.858l-97.66,58.597c 8.87,14.757, 6.947,34.187-5.777,46.911c-14.996,14.997-39.31,14.997-54.307,0.00   c-14.995-14.996-14.995-39.309, 0.001-54.306c 12.724-12.724, 32.154-14.646, 46.91-5.777L 148.811,128.00l 214.378,0.00 l 90.653,151.089   c 14.756-8.869, 34.186-6.947, 46.91,5.777C 515.749,299.863, 515.749,324.177, 500.754,339.172z" data-tags="queen, chess, _new"/>
<glyph unicode="[" d="M 96.00,336.00L 384.00,336.00L 384.00,80.00L 96.00,80.00zM 384.00,352.00l 64.00,64.00L 448.00,480.00 l-64.00,0.00 l0.00-32.00 l-96.00,0.00 L 288.00,480.00 l-96.00,0.00 l0.00-32.00 L 96.00,448.00 L 96.00,480.00 L 32.00,480.00 l0.00-64.00 l 64.00-64.00L 384.00,352.00 z M 384.00,400.00l-16.00-16.00L 112.00,384.00 L 96.00,400.00L 384.00,400.00 zM 64.00,64.00L 416.00,64.00L 416.00,32.00L 64.00,32.00zM 448.00,16.00L 32.00,16.00 c0.00,0.00-24.50-16.00-32.00-48.00l 480.00,0.00 C 472.50,0.00, 448.00,16.00, 448.00,16.00z" data-tags="rock, chess, _new"/>
<glyph unicode="\" d="M 396.797,96.00L 83.204,96.00 c 14.825-36.516, 79.39-64.00, 156.796-64.00S 381.972,59.484, 396.797,96.00zM0.00-32.00l 45.00,0.00 c0.00,1.29, 1.402,5.613, 5.57,10.059S 58.791-16.00, 60.00-16.00l 135.00,0.00 c 26.719,0.50, 45.00,31.50, 45.00,48.00c0.00,0.00-150.00,0.00-180.00,0.00S0.00,0.00,0.00-32.00zM 420.00,32.00c-30.00,0.00-180.00,0.00-180.00,0.00c0.00-16.50, 18.281-47.50, 45.00-48.00l 135.00,0.00 c 1.209,0.00, 5.263-1.496, 9.43-5.941   c 4.168-4.445, 5.57-8.769, 5.57-10.059l 45.00,0.00 C 480.00,0.00, 450.00,32.00, 420.00,32.00zM 240.00,128.00l 156.797,0.00 c-6.501,16.013-22.567,30.287-45.086,41.271C 362.08,183.277, 368.00,201.294, 368.00,224.00   c0.00,80.469-58.467,132.785-99.354,151.882C 285.024,385.653, 296.00,403.542, 296.00,424.00c0.00,30.928-25.072,56.00-56.00,56.00c-30.928,0.00-56.00-25.072-56.00-56.00   c0.00-20.458, 10.976-38.347, 27.354-48.118C 170.467,356.785, 112.00,304.469, 112.00,224.00c0.00-22.706, 5.92-40.723, 16.289-54.729   C 105.771,158.287, 89.704,144.012, 83.204,128.00L 240.00,128.00 C 240.00,128.00, 240.00,128.00, 240.00,128.00z M 160.00,256.00l0.00,32.00 l 64.00,0.00 l0.00,64.00 l 32.00,0.00 l0.00-64.00 l 64.00,0.00 l0.00-32.00 l-64.00,0.00 l0.00-64.00 l-32.00,0.00 l0.00,64.00 L 160.00,256.00 z" data-tags="bishop, chess, _new"/>
<glyph unicode="]" d="M 496.00,0.00L 128.00,0.00L 112.00-32.00L 512.00-32.00  zM 283.746,224.00c 6.724-103.949-84.766-144.757-116.334-208.00L 480.00,16.00 c0.00,35.797,0.00,92.966,0.00,176.00   c0.00,111.17-43.536,191.427-94.956,230.07c-2.373,10.093-5.959,21.243-9.954,30.304l-6.18,14.013   c-7.102,16.104-22.144,18.229-33.426,4.722l-19.313-23.118C 316.03,447.992, 315.888,448.00, 315.746,448.00   c-8.234,0.00-15.821-0.257-22.854-0.745L 250.626,475.433C 235.981,485.196, 224.00,478.784, 224.00,461.184l0.00-32.592    c-12.982-7.351-23.863-16.243-36.254-25.691c-32.00-24.399-108.926-121.066-160.00-178.901c-47.246-53.50-21.725-96.00, 23.00-86.00   c-2.246-42.00, 32.754-28.50, 57.00-10.00C 163.653,170.657, 288.50,150.50, 283.746,224.00z M 387.463,393.462c 17.253-17.466, 32.154-39.811, 43.73-65.751   C 448.981,287.854, 458.00,242.194, 458.00,192.00l0.00-144.00 l-48.00,48.00l0.00,96.00 c0.00,43.411-7.617,82.489-22.64,116.149   c-9.204,20.625-20.739,38.084-33.835,51.375L 387.463,393.462z M 80.00,185.372c-12.497,0.00-22.628,10.13-22.628,22.628   c0.00,12.497, 10.131,22.627, 22.628,22.627c 12.496,0.00, 22.627-10.13, 22.627-22.627C 102.627,195.502, 92.496,185.372, 80.00,185.372z    M 240.971,336.029c-18.746-18.745-41.539-26.343-50.912-16.971c-9.373,9.373-1.775,32.167, 16.97,50.912   c 18.745,18.745, 41.539,26.343, 50.913,16.97C 267.312,377.568, 259.716,354.774, 240.971,336.029z" data-tags="knight, chess, _new"/>
<glyph unicode="^" d="M 368.01,162.02C 378.193,180.385, 384.00,201.513, 384.00,224.00c0.00,51.657-30.604,96.162-74.667,116.386  C 325.695,355.035, 336.00,376.311, 336.00,400.00c0.00,44.183-35.817,80.00-80.00,80.00c-44.183,0.00-80.00-35.817-80.00-80.00c0.00-23.69, 10.305-44.965, 26.667-59.614  C 158.604,320.162, 128.00,275.657, 128.00,224.00c0.00-22.487, 5.806-43.615, 15.99-61.98C 77.044,123.287, 32.00,50.906, 32.00-32.00l 448.00,0.00   C 480.00,50.906, 434.956,123.287, 368.01,162.02z" data-tags="pawn, chess, _new"/>
<glyph unicode="_" d="M 448.00,480.00L 512.00,480.00L 512.00,416.00L 448.00,416.00zM 448.00,352.00L 512.00,352.00L 512.00,288.00L 448.00,288.00zM 448.00,224.00L 512.00,224.00L 512.00,160.00L 448.00,160.00zM 448.00,96.00L 512.00,96.00L 512.00,32.00L 448.00,32.00zM 384.00,416.00L 448.00,416.00L 448.00,352.00L 384.00,352.00zM 384.00,288.00L 448.00,288.00L 448.00,224.00L 384.00,224.00zM 384.00,160.00L 448.00,160.00L 448.00,96.00L 384.00,96.00zM 384.00,32.00L 448.00,32.00L 448.00-32.00L 384.00-32.00zM 320.00,480.00L 384.00,480.00L 384.00,416.00L 320.00,416.00zM 320.00,352.00L 384.00,352.00L 384.00,288.00L 320.00,288.00zM 320.00,224.00L 384.00,224.00L 384.00,160.00L 320.00,160.00zM 320.00,96.00L 384.00,96.00L 384.00,32.00L 320.00,32.00zM 256.00,416.00L 320.00,416.00L 320.00,352.00L 256.00,352.00zM 256.00,288.00L 320.00,288.00L 320.00,224.00L 256.00,224.00zM 256.00,160.00L 320.00,160.00L 320.00,96.00L 256.00,96.00zM 256.00,32.00L 320.00,32.00L 320.00-32.00L 256.00-32.00zM 192.00,480.00L 256.00,480.00L 256.00,416.00L 192.00,416.00zM 192.00,352.00L 256.00,352.00L 256.00,288.00L 192.00,288.00zM 192.00,224.00L 256.00,224.00L 256.00,160.00L 192.00,160.00zM 192.00,96.00L 256.00,96.00L 256.00,32.00L 192.00,32.00zM 128.00,416.00L 192.00,416.00L 192.00,352.00L 128.00,352.00zM 128.00,288.00L 192.00,288.00L 192.00,224.00L 128.00,224.00zM 128.00,160.00L 192.00,160.00L 192.00,96.00L 128.00,96.00zM 128.00,32.00L 192.00,32.00L 192.00-32.00L 128.00-32.00zM 64.00,480.00L 128.00,480.00L 128.00,416.00L 64.00,416.00zM 64.00,352.00L 128.00,352.00L 128.00,288.00L 64.00,288.00zM 64.00,224.00L 128.00,224.00L 128.00,160.00L 64.00,160.00zM 64.00,96.00L 128.00,96.00L 128.00,32.00L 64.00,32.00zM0.00,416.00L 64.00,416.00L 64.00,352.00L0.00,352.00zM0.00,288.00L 64.00,288.00L 64.00,224.00L0.00,224.00zM0.00,160.00L 64.00,160.00L 64.00,96.00L0.00,96.00zM0.00,32.00L 64.00,32.00L 64.00-32.00L0.00-32.00z" data-tags="chess, grid, _new"/>
<glyph unicode="`" d="M 512.00,265.372c0.00,100.463-29.396,181.969-65.741,182.613c 0.145,0.003, 0.289,0.015, 0.435,0.015l-41.47,0.00    c0.00,0.00-93.401-73.168-233.615-101.877c-4.28-22.646-7.015-49.637-7.015-80.751c0.00-31.114, 2.733-58.104, 7.015-80.75   c 140.214-28.709, 233.615-101.878, 233.615-101.878l 41.47,0.00 c-0.146,0.00-0.289,0.012-0.435,0.016C 482.607,83.404, 512.00,164.909, 512.00,265.372   z M 445.823,100.088c-4.771,0.00-9.934,5.194-12.588,8.291c-6.423,7.498-12.61,19.174-17.897,33.766   c-11.829,32.646-18.347,76.41-18.347,123.229s 6.518,90.582, 18.347,123.229c 5.286,14.592, 11.477,26.268, 17.897,33.765   c 2.654,3.099, 7.816,8.292, 12.588,8.292c 4.772,0.00, 9.937-5.195, 12.588-8.292c 6.425-7.498, 12.612-19.172, 17.898-33.765   c 11.83-32.646, 18.346-76.41, 18.346-123.229c0.00-46.816-6.516-90.582-18.346-123.229c-5.286-14.592-11.476-26.268-17.898-33.766   C 455.76,105.282, 450.597,100.088, 445.823,100.088zM 129.906,265.372c0.00,25.975, 1.905,51.215, 5.526,74.547c-23.686-3.277-48.471-5.162-74.17-5.162c-33.529,0.00-33.529,0.00-33.529,0.00   L0.00,287.414l0.00-44.085 l 27.73-47.343c0.00,0.00,0.00,0.00, 33.53,0.00c 25.699,0.00, 50.484-1.887, 74.17-5.162   C 131.812,214.156, 129.906,239.397, 129.906,265.372zM 422.882,345.429c-4.532-24.36-6.937-51.644-6.937-80.057c0.00-28.414, 2.402-55.696, 6.937-80.057   c 23.671,0.587, 42.765,36.20, 42.765,80.057C 465.647,309.228, 446.553,344.843, 422.882,345.429zM 184.075,158.914l-63.999,12.255l 40.921-160.773c 2.118-8.317, 10.372-12.518, 18.343-9.327l 59.278,23.726   c 7.972,3.187, 11.164,11.982, 7.098,19.542L 184.075,158.914z" data-tags="announcement, advertise, news"/>
<glyph unicode="a" d="M 64.00,288.00L0.00,288.00 l0.00-160.00 l 64.00,0.00 l0.00,32.00 l 64.009-18.289c-0.002-0.242-0.009-0.484-0.009-0.729L 128.00,96.00 c0.00-17.602, 14.399-32.00, 32.00-32.00l 64.00,0.00    c 17.60,0.00, 32.00,14.398, 32.00,32.00l0.00,9.143 l 160.00-45.715L 416.00,356.57 L 64.00,256.00L 64.00,288.00 z M 160.00,132.57l 63.928-18.265L 223.928,96.00 L 160.00,96.00 L 160.00,132.57 zM 448.00,365.714L 448.00,50.285L 512.00,32.00L 512.00,384.00  z" data-tags="announcement, advertise, news"/>
<glyph unicode="b" d="M 448.00,384.00L 64.00,384.00 c-35.20,0.00-64.00-28.80-64.00-64.00l0.00-192.00 c0.00-35.20, 28.80-64.00, 64.00-64.00l 384.00,0.00 c 35.20,0.00, 64.00,28.80, 64.00,64.00L 512.00,320.00 C 512.00,355.20, 483.20,384.00, 448.00,384.00z   M 160.00,128.00l-32.00,0.00 L 64.00,234.667L 64.00,128.00 L 32.00,128.00 L 32.00,288.00 l 32.00,0.00 l 64.00-106.667L 128.00,288.00 l 32.00,0.00 L 160.00,128.00 z M 288.00,256.00l-64.00,0.00 l0.00-32.00 l 64.00,0.00 l0.00-32.00 l-64.00,0.00 l0.00-32.00 l 64.00,0.00 l0.00-31.999 L 192.00,128.00L 192.00,288.00 l 96.00,0.00 L 288.00,256.00 z   M 480.00,128.00l-47.999,0.00 L 400.00,192.00l-32.00-64.00l-48.00,0.00 L 320.00,288.00 l 32.00,0.00 l0.00-128.00 l 32.00,64.00l 32.001,0.00 L 448.00,160.002L 448.00,288.00 l 32.00,0.00 L 480.00,128.00 z" data-tags="new"/>
<glyph unicode="c" d="M 224.00,96.00A32.00,32.00 6300.00 1,0 288.00,96A32.00,32.00 6300.00 1,0 224.00,96zM 256.00,416.00c-96.026,0.00-182.161-42.307-240.815-109.286l 24.081-21.071C 92.055,345.923, 169.577,384.00, 256.00,384.00   c 86.423,0.00, 163.945-38.077, 216.734-98.357l 24.081,21.071C 438.161,373.693, 352.027,416.00, 256.00,416.00zM 256.00,320.00c-67.218,0.00-127.513-29.615-168.571-76.50l 24.082-21.071C 146.703,262.616, 198.385,288.00, 256.00,288.00   c 57.616,0.00, 109.297-25.384, 144.489-65.571l 24.082,21.071C 383.513,290.385, 323.219,320.00, 256.00,320.00zM 256.00,224.00c-38.41,0.00-72.865-16.923-96.326-43.715l 24.082-21.071C 201.352,179.308, 227.192,192.00, 256.00,192.00   c 28.808,0.00, 54.648-12.692, 72.245-32.786l 24.081,21.071C 328.865,207.077, 294.41,224.00, 256.00,224.00z" data-tags="broadcast, podcast, stream, live, wifi"/>
<glyph unicode="d" d="M 224.00,288.00L 96.00-32.00l 48.596,0.00 L 256.00,65.479L 367.406-32.00L 416.00-32.00 L 288.00,288.00L 224.00,288.00 z M 149.024,14.395l 42.871,107.179l 39.81-34.833    L 149.024,14.395z M 362.978,14.396l-82.68,72.344l 39.809,34.833L 362.978,14.396z M 256.00,108.00l-51.507,45.068L 245.665,256.00l 20.67,0.00     l 41.173-102.932L 256.00,108.00zM 366.871,415.999C 377.764,397.172, 384.00,375.314, 384.00,352.00s-6.236-45.172-17.129-63.999l 27.72-16.00    C 408.204,295.535, 416.00,322.856, 416.00,352.00s-7.796,56.465-21.409,79.999L 366.871,415.999zM 145.128,288.001C 134.238,306.828, 128.00,328.686, 128.00,352.00s 6.236,45.172, 17.128,63.999L 117.41,431.998    C 103.796,408.464, 96.00,381.144, 96.00,352.00s 7.796-56.464, 21.41-79.999L 145.128,288.001zM 34.252,480.00C 12.47,442.345,0.00,398.629,0.00,352.00s 12.47-90.345, 34.252-127.999l 27.719,16.00C 42.911,272.948, 32.00,311.199, 32.00,352.00    S 42.911,431.052, 61.971,464.00L 34.252,480.00zM 512.00,352.00c0.00,46.63-12.47,90.346-34.253,128.00l0.00,0.00L 450.03,464.00C 469.09,431.052, 480.00,392.801, 480.00,352.00s-10.91-79.053-29.971-112.00    l 27.718-16.00l0.00,0.00C 499.531,261.654, 512.00,305.37, 512.00,352.00zM 224.00,352.00A32.00,32.00 6300.00 1,0 288.00,352A32.00,32.00 6300.00 1,0 224.00,352z" data-tags="broadcast, podcast, stream, live, wifi"/>
<glyph unicode="e" d="M 256.00,480.00C 114.615,480.00,0.00,365.385,0.00,224.00c0.00-70.691, 28.653-134.691, 74.98-181.019l 22.627,22.626C 57.072,106.145, 32.00,162.145, 32.00,224.00    C 32.00,347.712, 132.288,448.00, 256.00,448.00s 224.00-100.288, 224.00-224.00c0.00-61.855-25.072-117.855-65.608-158.393l 22.628-22.626    C 483.346,89.309, 512.00,153.309, 512.00,224.00C 512.00,365.385, 397.385,480.00, 256.00,480.00zM 256.00,480.00C 114.615,480.00,0.00,365.385,0.00,224.00c0.00-70.691, 28.653-134.691, 74.98-181.019l 22.627,22.626C 57.072,106.145, 32.00,162.145, 32.00,224.00    C 32.00,347.712, 132.288,448.00, 256.00,448.00s 224.00-100.288, 224.00-224.00c0.00-61.855-25.072-117.855-65.608-158.393l 22.628-22.626    C 483.346,89.309, 512.00,153.309, 512.00,224.00C 512.00,365.385, 397.385,480.00, 256.00,480.00L 256.00,480.00zM 256.00,384.00c-88.366,0.00-160.00-71.634-160.00-160.00c0.00-44.184, 17.909-84.184, 46.862-113.137l 22.639,22.638    c-23.161,23.161-37.486,55.157-37.486,90.499c0.00,70.684, 57.301,127.985, 127.985,127.985c 70.684,0.00, 127.984-57.301, 127.984-127.985    c0.00-35.342-14.325-67.338-37.486-90.499l 22.639-22.638C 398.092,139.816, 416.00,179.816, 416.00,224.00C 416.00,312.366, 344.365,384.00, 256.00,384.00zM 301.255,178.745C 312.837,190.327, 320.00,206.327, 320.00,224.00c0.00,35.346-28.654,64.00-64.00,64.00c-35.347,0.00-64.00-28.654-64.00-64.00   c0.00-17.673, 7.164-33.673, 18.745-45.255l 22.627,22.627C 227.582,207.163, 224.00,215.163, 224.00,224.00c0.00,17.673, 14.327,32.00, 32.00,32.00   s 32.00-14.327, 32.00-32.00c0.00-8.837-3.582-16.837-9.372-22.628L 301.255,178.745zM 244.00,192.00L 160.00-32.00L 352.00-32.00L 268.00,192.00  z" data-tags="podcast, broadcast, stream, live"/>
<glyph unicode="f" d="M 160.00-32.00l 192.00,0.00 l-64.00,64.00L 288.00,264.583 c 19.124,11.067, 32.00,31.732, 32.00,55.417c0.00,35.346-28.653,64.00-64.00,64.00c-35.346,0.00-64.00-28.654-64.00-64.00   c0.00-23.685, 12.876-44.349, 32.00-55.417L 224.00,32.00 L 160.00-32.00zM 355.918,399.996C 373.486,378.082, 384.00,350.271, 384.00,320.00s-10.515-58.082-28.082-79.996l 24.979-19.999   C 402.857,247.397, 416.00,282.161, 416.00,320.00s-13.144,72.603-35.103,99.995L 355.918,399.996zM 131.102,419.994C 109.143,392.602, 96.00,357.838, 96.00,320.00s 13.143-72.602, 35.102-99.994l 24.979,19.999   C 138.515,261.918, 128.00,289.729, 128.00,320.00s 10.515,58.082, 28.082,79.995L 131.102,419.994zM 56.164,480.00C 21.03,436.172,0.00,380.551,0.00,320.009S 21.03,203.846, 56.164,160.02l 24.979,19.998   C 50.401,218.367, 32.00,267.035, 32.00,320.009s 18.40,101.643, 49.143,139.992L 56.164,480.00zM 455.836,480.00l-24.979-19.999C 461.60,421.652, 480.00,372.983, 480.00,320.009s-18.40-101.644-49.144-139.992l 24.979-19.999   C 490.971,203.846, 512.00,259.467, 512.00,320.009S 490.971,436.172, 455.836,480.00z" data-tags="broadcast, podcast, stream, live, wifi"/>
<glyph unicode="g" d="M 256.00,96.00c 70.692,0.00, 128.00,57.308, 128.00,128.00l0.00,64.00 L 128.00,288.00 l0.00-64.00 C 128.00,153.308, 185.308,96.00, 256.00,96.00zM 448.00,320.00l-32.00,0.00 l0.00-96.00 c0.00-88.365-71.635-160.00-160.00-160.00S 96.00,135.635, 96.00,224.00l0.00,96.00 L 64.00,320.00 l-32.00-32.00l 32.00,0.00 l0.00-64.00 c0.00-95.134, 69.196-174.094, 160.00-189.33   L 224.00,0.00 l-64.00-32.00l 192.00,0.00 l-64.00,32.00l0.00,34.67 c 90.804,15.236, 160.00,94.196, 160.00,189.33l0.00,64.00 l 32.00,0.00 L 448.00,320.00zM 384.00,352.00C 384.00,422.692, 326.693,480.00, 256.00,480.00S 128.00,422.692, 128.00,352.00l0.00-32.00 l 256.00,0.00 L 384.00,352.00 z" data-tags="microphone, voice"/>
<glyph unicode="h" d="M 240.00,128.00c 44.183,0.00, 80.00,35.817, 80.00,80.00L 320.00,400.00 c0.00,44.183-35.817,80.00-80.00,80.00s-80.00-35.817-80.00-80.00l0.00-192.00 C 160.00,163.817, 195.818,128.00, 240.00,128.00zM 352.00,256.00l0.00-48.00 c0.00-61.855-50.145-112.00-112.00-112.00c-61.856,0.00-112.00,50.145-112.00,112.00l0.00,48.00 L 96.00,256.00 l0.00-48.00 c0.00-74.119, 56.002-135.15, 128.00-143.11L 224.00,0.00    l-64.00,0.00 l0.00-32.00 l 64.00,0.00 l 32.00,0.00 l 64.00,0.00 l0.00,32.00 l-64.00,0.00 l0.00,64.89 c 71.997,7.96, 128.00,68.991, 128.00,143.11l0.00,48.00 L 352.00,256.00 z" data-tags="microphone, voice"/>
<glyph unicode="i" d="M 229.053,311.954L0.00,32.00c0.00-32.00, 32.00-64.00, 64.00-64.00l 279.954,229.054C 287.768,211.533, 243.533,255.768, 229.053,311.954zM 291.482,440.452C 269.502,417.469, 256.00,386.312, 256.00,352.00c0.00-70.692, 57.308-128.00, 128.00-128.00c 34.312,0.00, 65.469,13.502, 88.452,35.481   C 380.441,275.873, 307.872,348.44, 291.482,440.452zM 416.00,416.00L 448.00,416.00L 448.00,384.00L 416.00,384.00zM 384.00,480.00c-23.014,0.00-44.606-6.078-63.268-16.71c 7.994-92.704, 81.854-166.564, 174.558-174.558   C 505.922,307.393, 512.00,328.986, 512.00,352.00C 512.00,422.692, 454.693,480.00, 384.00,480.00z M 480.00,384.00l-32.00,0.00 l0.00-32.00 l 32.00,0.00 l0.00-32.00 l-32.00,0.00 l0.00,32.00 l-32.00,0.00 L 416.00,384.00 l-32.00,0.00 L 384.00,416.00 l-32.00,0.00 L 352.00,448.00 l 32.00,0.00 l0.00-32.00 l 32.00,0.00 L 416.00,448.00    l 32.00,0.00 l0.00-32.00 l 32.00,0.00 L 480.00,384.00 z" data-tags="microphone, voice"/>
<glyph unicode="j" d="M 384.00,416.00c-49.179,0.00-94.03-18.498-128.00-48.905C 222.031,397.502, 177.179,416.00, 128.00,416.00S 33.969,397.502,0.00,367.096l0.00-8.596 l0.00-38.49 l0.00-192.004   L0.00,87.50 l0.00-6.576 c 0.342-0.306, 0.676-0.62, 1.02-0.924c 8.209-7.244, 17.04-13.798, 26.406-19.569c 9.43,7.631, 19.739,14.216, 30.761,19.569  c 21.098,10.248, 44.783,16.00, 69.813,16.00s 48.716-5.752, 69.813-16.00c 11.021-5.354, 21.331-11.938, 30.761-19.569  c 1.842-1.491, 3.65-3.022, 5.424-4.592c 8.108-7.178, 15.488-15.159, 22.002-23.83c 6.515,8.671, 13.894,16.652, 22.002,23.83  c 1.773,1.569, 3.581,3.101, 5.424,4.592c 9.43,7.631, 19.739,14.216, 30.761,19.569c 21.098,10.248, 44.783,16.00, 69.813,16.00  s 48.716-5.752, 69.813-16.00c 11.021-5.354, 21.331-11.938, 30.761-19.569c 9.366,5.771, 18.196,12.325, 26.405,19.569  c 0.344,0.304, 0.679,0.618, 1.021,0.924L 512.00,87.50 l0.00,40.506 L 512.00,320.01 L 512.00,358.50 l0.00,8.596 C 478.031,397.502, 433.179,416.00, 384.00,416.00z M 128.00,128.00  c-34.976,0.00-67.758-9.365-96.00-25.705L 32.00,352.007 C 58.741,372.095, 91.98,384.00, 128.00,384.00c 36.025,0.00, 69.258-11.919, 96.00-32.013l0.00-249.692   C 195.758,118.635, 162.976,128.00, 128.00,128.00z M 384.00,128.00c-34.976,0.00-67.758-9.365-96.00-25.705L 288.00,351.987 C 314.742,372.081, 347.976,384.00, 384.00,384.00  c 36.021,0.00, 69.259-11.906, 96.00-31.994l0.00-249.712 C 451.758,118.635, 418.976,128.00, 384.00,128.00z" data-tags="book, reading"/>
<glyph unicode="k" d="M 448.00,416.00l0.00-416.00 L 112.00,0.00 c-26.511,0.00-48.00,21.49-48.00,48.00c0.00,26.509, 21.489,48.00, 48.00,48.00l 304.00,0.00 L 416.00,480.00 L 96.00,480.00 C 60.801,480.00, 32.00,451.20, 32.00,416.00l0.00-384.00    c0.00-35.20, 28.801-64.00, 64.00-64.00l 384.00,0.00 L 480.00,416.00 L 448.00,416.00 zM 128.00,64.00L 416.00,64.00L 416.00,32.00L 128.00,32.00z" data-tags="book, reading"/>
<glyph unicode="l" d="M 288.117,335.365L 409.473,376.081L 511.265,72.689L 389.909,31.973zM0.00,32.00l 128.00,0.00 L 128.00,384.00 L0.00,384.00 L0.00,32.00 z M 32.00,320.00l 64.00,0.00 l0.00-32.00 L 32.00,288.00 L 32.00,320.00 zM 160.00,32.00l 128.00,0.00 L 288.00,384.00 L 160.00,384.00 L 160.00,32.00 z M 192.00,320.00l 64.00,0.00 l0.00-32.00 l-64.00,0.00 L 192.00,320.00 z" data-tags="books, library"/>
<glyph unicode="m" d="M 176.00,400.00A80.00,80.00 4500.00 1,0 336.00,400A80.00,80.00 4500.00 1,0 176.00,400zM 504.988,115.99l-128.00,160.00c-6.315,7.894-15.606,11.997-24.984,12.004L 352.00,288.00L 160.00,288.00 l-0.004-0.007   c-9.378-0.007-18.669-4.11-24.984-12.002l-128.00-160.00c-8.402-10.502-9.34-25.138-2.348-36.627   c 5.881-9.663, 16.314-15.365, 27.329-15.365c 2.082,0.00, 4.186,0.204, 6.282,0.623L 128.00,82.566L 128.00-32.00 l 256.00,0.00 L 384.00,82.566 l 89.725-17.945   c 2.097-0.419, 4.199-0.623, 6.281-0.623c 11.015,0.00, 21.449,5.703, 27.329,15.365C 514.328,90.852, 513.39,105.488, 504.988,115.99z    M 352.00,154.233l-25.725,5.146c-17.325,3.468-34.188-7.772-37.654-25.104c-3.466-17.33, 7.773-34.188, 25.104-37.654L 352.00,88.966L 352.00,64.00    l-96.00-32.00l-96.00,32.00l0.00,24.966 l 38.276,7.655c 17.33,3.466, 28.569,20.324, 25.103,37.654c-3.466,17.331-20.326,28.564-37.654,25.104   L 160.00,154.233L 160.00,224.00 l 96.00-32.00l 96.00,32.00L 352.00,154.233 z" data-tags="reading, book, student, library"/>
<glyph unicode="n" d="M 256.00,480.00L0.00,320.00l 512.00,0.00 L 256.00,480.00z M 256.00,337.60c-25.626,0.00-46.40,20.773-46.40,46.40s 20.773,46.40, 46.40,46.40   c 25.626,0.00, 46.40-20.773, 46.40-46.40S 281.626,337.60, 256.00,337.60zM 400.00,288.00L 416.00,256.00L 416.00,64.00L 480.00,64.00L 480.00,256.00L 496.00,288.00  zM 272.00,288.00L 288.00,256.00L 288.00,64.00L 352.00,64.00L 352.00,256.00L 368.00,288.00  zM 144.00,288.00L 160.00,256.00L 160.00,64.00L 224.00,64.00L 224.00,256.00L 240.00,288.00  zM 16.00,288.00L 32.00,256.00L 32.00,64.00L 96.00,64.00L 96.00,256.00L 112.00,288.00  zM 16.00,32.00L0.00-32.00L 512.00-32.00L 496.00,32.00  z" data-tags="library"/>
<glyph unicode="o" d="M 96.00,186.334L 96.00,112.00 c0.00-32.00, 71.634-80.00, 160.00-80.00c 88.365,0.00, 160.00,48.00, 160.00,80.00l0.00,74.334 l-160.00-80.00L 96.00,186.334zM 256.00,416.00L0.00,288.00l 256.00-128.00l 207.714,103.857L 448.00,128.00l 32.00,0.00 L 480.00,272.00 l 32.00,16.00L 256.00,416.00z M 272.00,280.80c-12.813,0.00-23.20,10.387-23.20,23.20   c0.00,12.813, 10.387,23.20, 23.20,23.20s 23.20-10.387, 23.20-23.20C 295.20,291.187, 284.814,280.80, 272.00,280.80z" data-tags="graduation, hat"/>
<glyph unicode="p" d="M 451.716,380.285l-71.432,71.431C 364.728,467.272, 334.00,480.00, 312.00,480.00L 72.00,480.00 C 50.00,480.00, 32.00,462.00, 32.00,440.00l0.00-432.00 c0.00-22.00, 18.00-40.00, 40.00-40.00l 368.00,0.00 c 22.00,0.00, 40.00,18.00, 40.00,40.00  L 480.00,312.00 C 480.00,334.00, 467.272,364.729, 451.716,380.285z M 429.089,357.657c 1.565-1.565, 3.125-3.487, 4.64-5.657L 352.00,352.00 L 352.00,433.728   c 2.17-1.515, 4.092-3.075, 5.657-4.64L 429.089,357.657z M 448.00,8.00c0.00-4.336-3.664-8.00-8.00-8.00L 72.00,0.00 c-4.336,0.00-8.00,3.664-8.00,8.00L 64.00,440.00 c0.00,4.336, 3.664,8.00, 8.00,8.00  l 240.00,0.00 c 2.416,0.00, 5.127-0.305, 8.00-0.852L 320.00,320.00 l 127.148,0.00 c 0.547-2.873, 0.852-5.583, 0.852-8.00L 448.00,8.00 z" data-tags="file, new, paper"/>
<glyph unicode="q" d="M 352.00,480.00L 32.00,480.00 l0.00-512.00 l 448.00,0.00 L 480.00,352.00 L 352.00,480.00z M 448.00,0.00L 64.00,0.00 L 64.00,448.00 l 288.00,0.00 l0.00-96.00 l 96.00,0.00 L 448.00,0.00 z" data-tags="file, new, paper"/>
<glyph unicode="r" d="M 448.00,96.00L 448.00,160.00L 384.00,160.00L 384.00,96.00L 320.00,96.00L 320.00,32.00L 384.00,32.00L 384.00-32.00L 448.00-32.00L 448.00,32.00L 512.00,32.00L 512.00,96.00  zM 32.00,448.00L 320.00,448.00L 320.00,352.00L 416.00,352.00L 416.00,192.00L 448.00,192.00L 448.00,352.00L 320.00,480.00L0.00,480.00L0.00-32.00L 288.00-32.00L 288.00,0.00L 32.00,0.00  z" data-tags="file-add, add, new, _new"/>
<glyph unicode="s" d="M 320.00,96.00L 512.00,96.00L 512.00,32.00L 320.00,32.00zM 32.00,448.00L 320.00,448.00L 320.00,352.00L 416.00,352.00L 416.00,192.00L 448.00,192.00L 448.00,352.00L 320.00,480.00L0.00,480.00L0.00-32.00L 288.00-32.00L 288.00,0.00L 32.00,0.00  z" data-tags="file-remove, remove, _new"/>
<glyph unicode="t" d="M 288.00,256.00L 192.00,256.00L 192.00,96.00L 112.00,96.00L 240.00-32.00L 368.00,96.00L 288.00,96.00  zM 320.00,480.00L 32.00,480.00L 32.00,288.00L 48.00-32.00L 64.00,288.00L 64.00,448.00L 320.00,448.00L 320.00,352.00L 416.00,352.00L 416.00,288.00L 432.00-32.00L 448.00,288.00L 448.00,352.00  z" data-tags="file-download, download, _new"/>
<glyph unicode="u" d="M 256.00-32.00L 256.00,192.00L 32.00,192.00  zM 32.00,480.00L 32.00,224.00L 288.00,224.00L 288.00-32.00L 480.00-32.00L 480.00,480.00  z" data-tags="new, page, file"/>
<glyph unicode="v" d="M 448.00,352.00L 320.00,352.00 L 320.00,416.00 L 256.00,480.00L0.00,480.00 l0.00-384.00 l 192.00,0.00 l0.00-128.00 l 320.00,0.00 L 512.00,288.00 L 448.00,352.00z M 32.00,128.00L 32.00,448.00 l 192.00,0.00 l 64.00-64.00l0.00-32.00 l-96.00,0.00 l0.00-224.00 L 32.00,128.00 z M 480.00,0.00L 224.00,0.00 L 224.00,320.00 l 192.00,0.00 l 64.00-64.00L 480.00,0.00   z" data-tags="copy, new, papers"/>
<glyph unicode="w" d="M 224.00,288.00L 416.00,288.00L 416.00,256.00L 224.00,256.00zM 224.00,224.00L 416.00,224.00L 416.00,192.00L 224.00,192.00zM 224.00,160.00L 416.00,160.00L 416.00,128.00L 224.00,128.00zM 224.00,96.00L 352.00,96.00L 352.00,64.00L 224.00,64.00zM 480.00,384.00l-96.00,0.00 L 384.00,448.00 c0.00,17.60-14.40,32.00-32.00,32.00L 32.00,480.00 C 14.40,480.00,0.00,465.60,0.00,448.00l0.00-352.00 c0.00-17.60, 14.40-32.00, 32.00-32.00l 96.00,0.00 l0.00-64.00 c0.00-17.60, 14.40-32.00, 32.00-32.00l 320.00,0.00    c 17.60,0.00, 32.00,14.40, 32.00,32.00L 512.00,352.00 C 512.00,369.60, 497.60,384.00, 480.00,384.00z M 128.00,352.00l0.00-240.00 L 48.00,112.00 L 48.00,432.00 l 288.00,0.00 l0.00-48.00 L 160.00,384.00 C 142.40,384.00, 128.00,369.60, 128.00,352.00z M 464.00,16.00L 176.00,16.00    L 176.00,336.00 l 288.00,0.00 L 464.00,16.00 z" data-tags="copy, new, papers"/>
<glyph unicode="x" d="M 440.00,352.00l-24.00,0.00 l0.00,24.00 c0.00,22.056-17.944,40.00-40.00,40.00l-24.00,0.00 L 352.00,440.00 c0.00,22.056-17.943,40.00-40.00,40.00l-240.00,0.00 c-22.056,0.00-40.00-17.944-40.00-40.00l0.00-304.00   c0.00-22.057, 17.944-40.00, 40.00-40.00l 24.00,0.00 l0.00-24.00 c0.00-22.057, 17.944-40.00, 40.00-40.00l 24.00,0.00 l0.00-24.00 c0.00-22.056, 17.944-40.00, 40.00-40.00l 240.00,0.00 c 22.056,0.00, 40.00,17.944, 40.00,40.00L 480.00,312.00   C 480.00,334.056, 462.056,352.00, 440.00,352.00z M 72.001,128.00c-4.40,0.00-8.00,3.60-8.00,8.00L 64.001,440.00 c0.00,4.40, 3.60,8.00, 8.00,8.00l 240.00,0.00 c 4.40,0.00, 8.00-3.60, 8.00-8.00l0.00-24.00 L 136.00,416.00   c-22.056,0.00-40.00-17.944-40.00-40.00l0.00-248.00 L 72.001,128.00 z M 136.00,64.00c-4.40,0.00-8.00,3.60-8.00,8.00L 128.00,376.00 c0.00,4.40, 3.60,8.00, 8.00,8.00l 240.00,0.00 c 4.40,0.00, 8.00-3.60, 8.00-8.00l0.00-24.00 L 200.00,352.00   c-22.056,0.00-40.00-17.944-40.00-40.00l0.00-248.00 L 136.00,64.00 z M 448.00,8.00c0.00-4.40-3.60-8.00-8.00-8.00L 200.00,0.00 c-4.40,0.00-8.00,3.60-8.00,8.00L 192.00,312.00 c0.00,4.40, 3.60,8.00, 8.00,8.00l 240.00,0.00 c 4.40,0.00, 8.00-3.60, 8.00-8.00L 448.00,8.00 z" data-tags="stack, files, archive, category, papers"/>
<glyph unicode="y" d="M0.00,320.00L 16.00,32.00L 496.00,32.00L 512.00,320.00  zM 464.00,384.00L 256.00,384.00L 240.00,416.00L 64.00,416.00L 32.00,352.00L 480.00,352.00  z" data-tags="folder, category, archive"/>
<glyph unicode="z" d="M 224.00,416.00L 288.00,352.00L 512.00,352.00L 512.00,0.00L0.00,0.00L0.00,416.00 z" data-tags="folder, category, archive"/>
<glyph unicode="{" d="M 288.00,352.00l-64.00,64.00L0.00,416.00 l0.00-416.00 l 512.00,0.00 L 512.00,352.00 L 288.00,352.00 z M 256.00,32.00L 128.00,160.00l 96.00,0.00 L 224.00,288.00 l 64.00,0.00 l0.00-128.00 l 96.00,0.00 L 256.00,32.00z" data-tags="folder-download, download, _new"/>
<glyph unicode="|" d="M 288.00,352.00L 224.00,416.00L0.00,416.00L0.00,0.00L 224.00,0.00L 224.00,128.00L 128.00,128.00L 256.00,256.00L 384.00,128.00L 288.00,128.00L 288.00,0.00L 512.00,0.00L 512.00,352.00 z" data-tags="folder-upload, upload, _new"/>
<glyph unicode="}" d="M 492.25,352.00L 19.75,352.00 c-13.20,0.00-21.882-10.59-19.293-23.534l 58.836-272.932C 61.882,42.59, 74.80,32.00, 88.00,32.00l 336.00,0.00    c 13.20,0.00, 26.118,10.59, 28.707,23.534l 58.836,272.932C 514.132,341.41, 505.45,352.00, 492.25,352.00zM 448.00,392.00c0.00,13.255-10.745,24.00-24.00,24.00L 208.00,416.00 l-16.00,32.00L 88.00,448.00 c-13.255,0.00-24.00-10.745-24.00-24.00l0.00-56.00 l 384.00,0.00 L 448.00,392.00 z" data-tags="folder, directory, category, archive"/>
<glyph unicode="" d="M 492.25,352.00L 448.00,352.00 L 448.00,392.00 c0.00,13.255-10.745,24.00-24.00,24.00L 208.00,416.00 l-16.00,32.00L 88.00,448.00 c-13.255,0.00-24.00-10.745-24.00-24.00l0.00-72.00 L 19.75,352.00   c-13.20,0.00-21.882-10.59-19.293-23.534l 58.836-272.932C 61.882,42.59, 74.80,32.00, 88.00,32.00l 336.00,0.00 c 13.20,0.00, 26.118,10.59, 28.707,23.534  l 58.836,272.932C 514.132,341.41, 505.45,352.00, 492.25,352.00z M 96.00,416.00l 76.223,0.00 l 16.00-32.00L 416.00,384.00 l0.00-32.00 L 96.00,352.00 L 96.00,416.00 z M 421.797,64.00L 90.203,64.00 L 35.017,320.00l 441.966,0.00   L 421.797,64.00z" data-tags="folder, directory, category, archive"/>
<glyph unicode="" d="M 294.40,352.00A57.60,57.60 6300.00 1,0 409.60,352A57.60,57.60 6300.00 1,0 294.40,352zM 320.00,261.47L 320.00,128.00 l 32.00,32.00l 32.00-32.00L 384.00,261.47 c-10.01-3.539-20.778-5.47-32.00-5.47S 330.01,257.932, 320.00,261.47zM 96.00,384.00L 224.00,384.00L 224.00,352.00L 96.00,352.00zM 96.00,192.00L 224.00,192.00L 224.00,160.00L 96.00,160.00zM 96.00,96.00L 384.00,96.00L 384.00,64.00L 96.00,64.00zM 96.00,288.00L 256.00,288.00L 256.00,256.00L 96.00,256.00zM 32.00,480.00l0.00-512.00 l 448.00,0.00 L 480.00,480.00 L 32.00,480.00 z M 448.00,0.00L 64.00,0.00 L 64.00,448.00 l 384.00,0.00 L 448.00,0.00 z" data-tags="license, agreement"/>
<glyph unicode="" d="M 320.00,480.00L0.00,160.00l 192.00-192.00l 320.00,320.00L 512.00,480.00 L 320.00,480.00 z M 400.00,320.00c-26.51,0.00-48.00,21.49-48.00,48.00s 21.49,48.00, 48.00,48.00s 48.00-21.49, 48.00-48.00S 426.51,320.00, 400.00,320.00z" data-tags="tag, price"/>
<glyph unicode="" d="M 288.00,480.00L0.00,192.00l 224.00-224.00l 288.00,288.00L 512.00,480.00 L 288.00,480.00 z M 416.00,337.60c-25.626,0.00-46.399,20.773-46.399,46.40S 390.374,430.40, 416.00,430.40  s 46.40-20.773, 46.40-46.40S 441.626,337.60, 416.00,337.60z" data-tags="tag, price"/>
<glyph unicode="" d="M 288.00,480.00L0.00,192.00l 160.00-64.00l 64.00-160.00l 288.00,288.00L 512.00,480.00 L 288.00,480.00 z M 416.00,337.60c-25.626,0.00-46.399,20.773-46.399,46.40S 390.374,430.40, 416.00,430.40  s 46.40-20.773, 46.40-46.40S 441.626,337.60, 416.00,337.60z" data-tags="tag, price"/>
<glyph unicode="" d="M 384.00,352.00L 32.00,352.00 c-17.673,0.00-32.00-14.327-32.00-32.00l0.00-192.00 c0.00-17.674, 14.327-32.00, 32.00-32.00l 352.00,0.00 l 128.00,128.00L 384.00,352.00z M 352.00,177.60  c-25.626,0.00-46.40,20.774-46.40,46.40c0.00,25.625, 20.774,46.40, 46.40,46.40s 46.40-20.774, 46.40-46.40C 398.401,198.374, 377.626,177.60, 352.00,177.60z" data-tags="tag, price"/>
<glyph unicode="" d="M 287.998,320.00L 351.997,256.001L 224.00,128.004L 160.001,192.003zM 500.763,331.248l-36.758,36.758l-16.004-16.004c-8.189-8.19-19.505-13.255-32.00-13.255   c-24.994,0.00-45.257,20.261-45.257,45.255c0.00,12.501, 5.07,23.819, 13.267,32.009l 15.994,15.993l-36.759,36.758   c-14.984,14.984-39.504,14.984-54.488,0.00L 11.238,171.243c-14.983-14.984-14.983-39.505,0.00-54.488l 36.76-36.759l 15.981,15.982   c 8.191,8.203, 19.515,13.276, 32.022,13.276c 24.994,0.00, 45.255-20.262, 45.255-45.255c0.00-12.503-5.07-23.82-13.267-32.011l-15.992-15.993   l 36.758-36.759c 14.983-14.983, 39.504-14.983, 54.488,0.00l 297.52,297.52C 515.745,291.744, 515.745,316.264, 500.763,331.248z    M 224.001,64.002l-128.00,128.00l 192.00,192.00l 128.00-128.00L 224.001,64.002z" data-tags="ticket"/>
<glyph unicode="" d="M 64.00,16.00A48.00,48.00 4500.00 1,0 160.00,16A48.00,48.00 4500.00 1,0 64.00,16zM 384.00,16.00A48.00,48.00 4500.00 1,0 480.00,16A48.00,48.00 4500.00 1,0 384.00,16zM 480.00,224.00L 480.00,416.00 L 64.00,416.00 C 64.00,451.346, 35.347,480.00,0.00,480.00l0.00-32.00 c 17.645,0.00, 32.00-14.355, 32.00-32.00l 24.037-206.027C 41.39,198.244, 32.00,180.223, 32.00,160.00   c0.00-35.347, 28.654-64.00, 64.00-64.00l 384.00,0.00 l0.00,32.00 L 96.00,128.00 c-17.673,0.00-32.00,14.327-32.00,32.00c0.00,0.11, 0.007,0.218, 0.008,0.328L 480.00,224.00z" data-tags="cart, ecommerce, shopping, products, purchase, buy, store"/>
<glyph unicode="" d="M 64.00,16.00A48.00,48.00 1260.00 1,0 160.00,16A48.00,48.00 1260.00 1,0 64.00,16zM 384.00,16.00A48.00,48.00 1260.00 1,0 480.00,16A48.00,48.00 1260.00 1,0 384.00,16zM 480.00,224.00L 480.00,416.00 L 64.00,416.00 C 64.00,451.346, 35.347,480.00,0.00,480.00l0.00-32.00 c 17.645,0.00, 32.00-14.355, 32.00-32.00l 24.037-206.027C 41.39,198.244, 32.00,180.223, 32.00,160.00   c0.00-35.348, 28.654-64.00, 64.00-64.00l 384.00,0.00 l0.00,32.00 L 96.00,128.00 c-17.673,0.00-32.00,14.327-32.00,32.00c0.00,0.109, 0.007,0.218, 0.008,0.328L 480.00,224.00z M 67.951,384.00L 448.00,384.00 l0.00-4.00    L 68.417,380.00 L 67.951,384.00z M 448.00,372.00l0.00-8.00 L 70.284,364.00 l-0.934,8.00L 448.00,372.00 z M 448.00,356.00l0.00-8.00 L 72.151,348.00 l-0.934,8.00L 448.00,356.00 z M 448.00,340.00l0.00-8.00 L 74.018,332.00 l-0.934,8.00L 448.00,340.00 z M 448.00,324.00l0.00-8.00    L 75.884,316.00 l-0.934,8.00L 448.00,324.00 z M 448.00,308.00l0.00-8.00 L 77.751,300.00 l-0.934,8.00L 448.00,308.00 z M 88.951,204.00l-0.934,8.00l 102.082,0.00 l-52.267-8.00L 88.951,204.00 z M 87.084,220.00l-0.933,8.00   l 208.481,0.00 l-52.267-8.00L 87.084,220.00 z M 85.218,236.00l-0.934,8.00l 314.882,0.00 l-52.267-8.00L 85.218,236.00 z M 83.351,252.00l-0.933,8.00L 448.00,260.00 l0.00-8.00 L 83.351,252.00 z M 81.484,268.00   l-0.934,8.00L 448.00,276.00 l0.00-8.00 L 81.484,268.00 z M 79.618,284.00l-0.934,8.00L 448.00,292.00 l0.00-8.00 L 79.618,284.00 z" data-tags="cart, ecommerce, shopping, products, purchase, buy, store, _new"/>
<glyph unicode="" d="M 406.616,160.00l 102.159,210.001L 480.00,384.00l-15.566-32.00l-353.00,0.00 L 96.001,384.00l0.00,0.00 L0.00,384.00 l0.00-32.00 l 75.906,0.00 l 92.597-192.00L 406.616,160.00 z M 224.00,192.00l-35.402,0.00    l-15.433,32.00L 224.00,224.00 L 224.00,192.00 z M 352.00,320.00l 96.866,0.00 l-31.134-64.00L 352.00,256.00 L 352.00,320.00 z M 352.00,224.00l 50.165,0.00 l-15.566-32.00L 352.00,192.00 L 352.00,224.00 z M 256.00,320.00l 64.00,0.00 l0.00-64.00 l-64.00,0.00 L 256.00,320.00 z M 256.00,224.00   l 64.00,0.00 l0.00-32.00 l-64.00,0.00 L 256.00,224.00 z M 126.866,320.00L 224.00,320.00 l0.00-64.00 l-66.268,0.00 L 126.866,320.00zM 160.00,80.00A48.00,48.00 6300.00 1,0 256.00,80A48.00,48.00 6300.00 1,0 160.00,80zM 320.00,80.00A48.00,48.00 6300.00 1,0 416.00,80A48.00,48.00 6300.00 1,0 320.00,80z" data-tags="cart, ecommerce, shopping, products, purchase, buy, store"/>
<glyph unicode="" d="M 160.00,80.00A48.00,48.00 6300.00 1,0 256.00,80A48.00,48.00 6300.00 1,0 160.00,80zM 288.00,80.00A48.00,48.00 6300.00 1,0 384.00,80A48.00,48.00 6300.00 1,0 288.00,80zM 436.278,384.00l-23.445-64.00L 130.297,320.00 L 96.001,416.00l0.00,0.00 L0.00,416.00 l0.00-32.00 l 73.452,0.00 l 80.026-224.00l 234.82,0.00 l 82.059,224.00L 436.278,384.00 z M 365.941,192.00L 176.026,192.00    l-34.296,96.00l 259.379,0.00 L 365.941,192.00z" data-tags="cart, ecommerce, shopping, products, purchase, buy, store"/>
<glyph unicode="" d="M 160.00,80.00A48.00,48.00 6300.00 1,0 256.00,80A48.00,48.00 6300.00 1,0 160.00,80zM 288.00,80.00A48.00,48.00 6300.00 1,0 384.00,80A48.00,48.00 6300.00 1,0 288.00,80zM 436.278,384.00L 365.941,192.00L 176.026,192.00L 96.001,416.00L 96.00,416.00L0.00,416.00L0.00,384.00L 73.452,384.00L 153.478,160.00L 388.298,160.00L 470.357,384.00  zM 256.00,224.00L 288.00,224.00L 288.00,288.00L 352.00,288.00L 352.00,320.00L 288.00,320.00L 288.00,384.00L 256.00,384.00L 256.00,320.00L 192.00,320.00L 192.00,288.00L 256.00,288.00  z" data-tags="cart-add, ecommerce, shopping, products, purchase, buy, store, add"/>
<glyph unicode="" d="M 160.00,80.00A48.00,48.00 6300.00 1,0 256.00,80A48.00,48.00 6300.00 1,0 160.00,80zM 288.00,80.00A48.00,48.00 6300.00 1,0 384.00,80A48.00,48.00 6300.00 1,0 288.00,80zM 436.278,384.00L 365.941,192.00L 176.026,192.00L 96.001,416.00L 96.00,416.00L0.00,416.00L0.00,384.00L 73.452,384.00L 153.478,160.00L 388.298,160.00L 470.357,384.00  zM 192.00,320.00L 352.00,320.00L 352.00,288.00L 192.00,288.00z" data-tags="cart-remove, ecommerce, shopping, products, purchase, buy, store, remove"/>
<glyph unicode="" d="M 363.314,340.687L 340.687,363.313L 256.00,278.627L 203.314,331.313L 180.687,308.687L 256.00,233.373  zM 160.00,80.00A48.00,48.00 6300.00 1,0 256.00,80A48.00,48.00 6300.00 1,0 160.00,80zM 288.00,80.00A48.00,48.00 6300.00 1,0 384.00,80A48.00,48.00 6300.00 1,0 288.00,80zM 436.278,384.00L 365.941,192.00L 176.026,192.00L 96.001,416.00L 96.00,416.00L0.00,416.00L0.00,384.00L 73.452,384.00L 153.478,160.00L 388.298,160.00L 470.357,384.00  z" data-tags="cart-checkout, ecommerce, shopping, products, purchase, buy, store, checkout"/>
<glyph unicode="" d="M 406.494,288.00L 317.573,403.765C 319.134,407.535, 320.00,411.666, 320.00,416.00c0.00,17.673-14.326,32.00-32.00,32.00c-17.673,0.00-32.00-14.327-32.00-32.00  s 14.327-32.00, 32.00-32.00c 1.421,0.00, 2.816,0.102, 4.188,0.282L 366.144,288.00L 145.857,288.00 l 73.956,96.282C 221.184,384.102, 222.58,384.00, 224.00,384.00  c 17.673,0.00, 32.00,14.327, 32.00,32.00s-14.327,32.00-32.00,32.00s-32.00-14.327-32.00-32.00c0.00-4.334, 0.866-8.465, 2.427-12.234L 105.506,288.00L0.00,288.00 l0.00-64.00 l 32.00,0.00 l 32.00-256.00l 384.00,0.00   l 32.00,256.00l 32.00,0.00 l0.00,64.00 L 406.494,288.00 z M 160.00,32.00L 96.00,32.00 l0.00,64.00 l 64.00,0.00 L 160.00,32.00 z M 160.00,160.00L 96.00,160.00 l0.00,64.00 l 64.00,0.00 L 160.00,160.00 z M 288.00,32.00l-64.00,0.00 l0.00,64.00 l 64.00,0.00 L 288.00,32.00 z M 288.00,160.00l-64.00,0.00 l0.00,64.00 l 64.00,0.00 L 288.00,160.00 z   M 416.00,32.00l-64.00,0.00 l0.00,64.00 l 64.00,0.00 L 416.00,32.00 z M 416.00,160.00l-64.00,0.00 l0.00,64.00 l 64.00,0.00 L 416.00,160.00 z" data-tags="basket, cart, ecommerce, shopping, products, purchase, buy, store"/>
<glyph unicode="" d="M 64.00-32.00l 383.459,0.00 c0.00,0.00, 32.541,64.00, 64.00,256.00L0.00,224.00 C 32.00,32.00, 64.00-32.00, 64.00-32.00z M 368.00,192.00l 48.00,0.00 l0.00-192.00 l-48.00,0.00 L 368.00,192.00 z M 277.333,192.00l 48.00,0.00 l0.00-192.00 l-48.00,0.00 L 277.333,192.00 z    M 186.667,192.00l 48.00,0.00 l0.00-192.00 l-48.00,0.00 L 186.667,192.00 z M 96.00,192.00l 48.00,0.00 l0.00-192.00 L 96.00,0.00 L 96.00,192.00 zM 437.768,320.00L 347.90,432.334c 2.606,4.631, 4.10,9.973, 4.10,15.666c0.00,17.673-14.327,32.00-32.00,32.00c-17.674,0.00-32.00-14.327-32.00-32.00   s 14.326-32.00, 32.00-32.00c 3.185,0.00, 6.259,0.472, 9.162,1.338L 407.032,320.00L 104.968,320.00 l 77.871,97.338C 185.742,416.472, 188.815,416.00, 192.00,416.00   c 17.673,0.00, 32.00,14.327, 32.00,32.00S 209.673,480.00, 192.00,480.00s-32.00-14.327-32.00-32.00c0.00-5.693, 1.493-11.034, 4.10-15.666L 74.232,320.00L0.00,320.00 l0.00-64.00 l 512.00,0.00 l0.00,64.00 L 437.768,320.00 z" data-tags="basket, cart, ecommerce, shopping, products, purchase, buy, store, _new"/>
<glyph unicode="" d="M 432.00,320.00l-80.00,0.00 c0.00,88.365-42.98,160.00-96.00,160.00s-96.00-71.635-96.00-160.00L 80.00,320.00 c-8.80,0.00-16.00-7.20-16.00-16.00l0.00-320.00 c0.00-8.80, 7.20-16.00, 16.00-16.00l 352.00,0.00   c 8.80,0.00, 16.00,7.20, 16.00,16.00L 448.00,304.00 C 448.00,312.80, 440.80,320.00, 432.00,320.00z M 256.00,448.00c 35.347,0.00, 64.00-57.308, 64.00-128.00L 192.00,320.00 C 192.00,390.692, 220.654,448.00, 256.00,448.00z" data-tags="bag, cart, ecommerce, shopping, products, purchase, buy, store"/>
<glyph unicode="" d="M 256.00,224.00l0.00,64.00 l 64.00,0.00 l0.00,32.00 l-64.00,0.00 l0.00,32.00 l-32.00,0.00 l0.00-32.00 l-64.00,0.00 l0.00-128.00 l 64.00,0.00 l0.00-64.00 l-64.00,0.00 l0.00-32.00 l 64.00,0.00 l0.00-32.00 l 32.00,0.00 l0.00,32.00 l 64.00,0.00 l 0.001,0.00 L 320.00,224.00L 256.00,224.00 z M 224.00,224.00l-32.00,0.00 l0.00,64.00 l 32.00,0.00 L 224.00,224.00 z    M 288.001,128.00L 256.00,128.00 l0.00,64.00 l 32.001,0.00 L 288.001,128.00 zM 240.00,448.00C 107.452,448.00,0.00,340.548,0.00,208.00c0.00-132.549, 107.452-240.00, 240.00-240.00c 132.549,0.00, 240.00,107.451, 240.00,240.00   C 480.00,340.548, 372.549,448.00, 240.00,448.00z M 240.00,0.00c-114.875,0.00-208.00,93.125-208.00,208.00S 125.125,416.00, 240.00,416.00s 208.00-93.125, 208.00-208.00   S 354.875,0.00, 240.00,0.00z" data-tags="coin, money, cash"/>
<glyph unicode="" d="M 335.333,321.333c-11.648,0.00-23.03-1.14-34.049-3.292c-0.873,0.659-1.763,1.314-2.694,1.958   c 13.614,9.414, 21.41,20.342, 21.41,32.00L 320.00,384.00 c0.00,35.346-71.634,64.00-160.00,64.00S0.00,419.346,0.00,384.00l0.00-32.00 c0.00-11.658, 7.796-22.586, 21.41-32.00   C 7.796,310.586,0.00,299.658,0.00,288.00l0.00-32.00 c0.00-11.658, 7.796-22.586, 21.411-32.00C 7.796,214.586,0.00,203.657,0.00,192.00l0.00-32.00    c0.00-11.658, 7.796-22.586, 21.41-32.00C 7.796,118.586,0.00,107.657,0.00,96.00l0.00-32.00 c0.00-35.347, 71.634-64.00, 160.00-64.00c 23.616,0.00, 46.021,2.057, 66.20,5.73   C 256.244-17.902, 294.143-32.00, 335.333-32.00C 432.904-32.00, 512.00,47.097, 512.00,144.667C 512.00,242.237, 432.904,321.333, 335.333,321.333z    M 16.00,384.00c0.00,9.523, 14.447,21.456, 36.805,30.399C 81.18,425.749, 119.25,432.00, 160.00,432.00s 78.82-6.251, 107.195-17.601   C 289.553,405.456, 304.00,393.523, 304.00,384.00s-14.447-21.456-36.805-30.399c-9.23-3.692-19.492-6.841-30.533-9.414   C 213.763,338.85, 187.495,336.00, 160.00,336.00s-53.763,2.85-76.663,8.187c-11.041,2.573-21.302,5.722-30.532,9.414   C 30.447,362.544, 16.00,374.477, 16.00,384.00z M 16.00,192.00c0.00,7.067, 7.961,15.46, 21.203,22.975C 66.553,200.934, 110.666,192.00, 160.00,192.00   c 1.71,0.00, 3.406,0.023, 5.102,0.047c-4.188-15.08-6.436-30.967-6.436-47.38c0.00-0.22, 0.007-0.438, 0.008-0.658   c-27.013,0.09-52.808,2.927-75.339,8.178c-11.04,2.573-21.301,5.722-30.531,9.413C 30.447,170.543, 16.00,182.477, 16.00,192.00z M 160.00,48.00   c-40.75,0.00-78.82,6.25-107.195,17.60C 30.447,74.543, 16.00,86.477, 16.00,96.00c0.00,7.067, 7.961,15.46, 21.203,22.975   C 66.553,104.934, 110.666,96.00, 160.00,96.00c 1.824,0.00, 3.635,0.023, 5.443,0.05c 4.82-16.873, 12.088-32.713, 21.391-47.114   C 178.073,48.323, 169.108,48.00, 160.00,48.00z M 160.00,240.00c-27.494,0.00-53.763,2.85-76.662,8.187c-11.041,2.573-21.303,5.722-30.533,9.414   C 30.447,266.544, 16.00,278.477, 16.00,288.00c0.00,7.067, 7.961,15.46, 21.202,22.975C 66.552,296.934, 110.665,288.00, 160.00,288.00   c 32.961,0.00, 63.569,4.001, 89.022,10.836c-24.988-14.02-46.22-33.935-61.811-57.865C 178.33,240.34, 169.241,240.00, 160.00,240.00z    M 335.333,0.121c-79.83,0.00-144.545,64.715-144.545,144.546c0.00,79.83, 64.715,144.545, 144.545,144.545   c 79.831,0.00, 144.546-64.715, 144.546-144.545C 479.879,64.836, 415.164,0.121, 335.333,0.121zM 352.00,256.00l-32.00,0.00 l0.00-32.00 l-64.00,0.00 l0.00-96.00 l 64.00,0.00 l0.00-32.00 l-64.00,0.00 l0.00-32.00 l 64.00,0.00 l0.00-32.00 l 32.00,0.00 l0.00,32.00 l 64.00,0.00 l0.00,96.00 l-64.00,0.00 l0.00,32.00 l 64.00,0.00 l0.00,32.00 l-64.00,0.00 L 352.00,256.00 z M 320.00,160.00l-32.00,0.00 l0.00,32.00 l 32.00,0.00 L 320.00,160.00 z M 384.00,128.00l0.00-32.00    l-32.00,0.00 l0.00,32.00 L 384.00,128.00 z" data-tags="coins, money, cash"/>
<glyph unicode="" d="M 384.00,480.00L 128.00,480.00 c-17.60,0.00-32.00-14.40-32.00-32.00l0.00-448.00 c0.00-17.60, 14.40-32.00, 32.00-32.00l 256.00,0.00 c 17.60,0.00, 32.00,14.40, 32.00,32.00L 416.00,448.00 C 416.00,465.60, 401.60,480.00, 384.00,480.00z M 192.00,0.00  l-64.00,0.00 l0.00,64.00 l 64.00,0.00 L 192.00,0.00 z M 192.00,96.00l-64.00,0.00 l0.00,64.00 l 64.00,0.00 L 192.00,96.00 z M 192.00,192.00l-64.00,0.00 l0.00,64.00 l 64.00,0.00 L 192.00,192.00 z M 288.00,0.00l-64.00,0.00 l0.00,64.00 l 64.00,0.00 L 288.00,0.00 z M 288.00,96.00l-64.00,0.00 l0.00,64.00 l 64.00,0.00 L 288.00,96.00 z M 288.00,192.00  l-64.00,0.00 l0.00,64.00 l 64.00,0.00 L 288.00,192.00 z M 384.00,0.00l-64.00,0.00 l0.00,64.00 l 64.00,0.00 L 384.00,0.00 z M 384.00,96.00l-64.00,0.00 l0.00,64.00 l 64.00,0.00 L 384.00,96.00 z M 384.00,192.00l-64.00,0.00 l0.00,64.00 l 64.00,0.00 L 384.00,192.00 z M 384.00,288.00L 128.00,288.00 L 128.00,448.00 l 256.00,0.00 L 384.00,288.00 z" data-tags="calculate, sum, calculator, compute"/>
<glyph unicode="" d="M 192.00,480.00L 32.00,480.00 C 14.40,480.00,0.00,465.60,0.00,448.00l0.00-160.00 c0.00-17.60, 14.398-32.00, 32.00-32.00l 160.00,0.00 c 17.60,0.00, 32.00,14.40, 32.00,32.00L 224.00,448.00 C 224.00,465.60, 209.60,480.00, 192.00,480.00z M 192.00,352.00   L 32.00,352.00 L 32.00,384.00 l 160.00,0.00 L 192.00,352.00 zM 480.00,480.00L 320.00,480.00 c-17.602,0.00-32.00-14.40-32.00-32.00l0.00-448.00 c0.00-17.60, 14.398-32.00, 32.00-32.00l 160.00,0.00 c 17.60,0.00, 32.00,14.40, 32.00,32.00L 512.00,448.00 C 512.00,465.60, 497.60,480.00, 480.00,480.00z    M 480.00,160.00L 320.00,160.00 l0.00,32.00 l 160.00,0.00 L 480.00,160.00 z M 480.00,256.00L 320.00,256.00 l0.00,32.00 l 160.00,0.00 L 480.00,256.00 zM 192.00,192.00L 32.00,192.00 C 14.40,192.00,0.00,177.60,0.00,160.00l0.00-160.00 c0.00-17.60, 14.398-32.00, 32.00-32.00l 160.00,0.00 c 17.60,0.00, 32.00,14.40, 32.00,32.00L 224.00,160.00 C 224.00,177.60, 209.60,192.00, 192.00,192.00   z M 192.00,64.00l-64.00,0.00 l0.00-64.00 L 96.00,0.00 l0.00,64.00 L 32.00,64.00 l0.00,32.00 l 64.00,0.00 l0.00,64.00 l 32.00,0.00 l0.00-64.00 l 64.00,0.00 L 192.00,64.00 z" data-tags="calculate, sum, calculator, compute"/>
<glyph unicode="" d="M 256.00,480.00C 114.615,480.00,0.00,365.385,0.00,224.00s 114.615-256.00, 256.00-256.00s 256.00,114.615, 256.00,256.00S 397.385,480.00, 256.00,480.00z M 160.00,224.00  c0.00,53.02, 42.98,96.00, 96.00,96.00s 96.00-42.98, 96.00-96.00s-42.98-96.00-96.00-96.00S 160.00,170.98, 160.00,224.00z M 462.99,138.262L 462.99,138.262l-88.71,36.745  C 380.539,190.099, 384.00,206.645, 384.00,224.00s-3.461,33.901-9.72,48.993l 61.063,25.293l 27.647,11.452C 473.944,283.327, 480.00,254.373, 480.00,224.00  C 480.00,193.627, 473.943,164.673, 462.99,138.262L 462.99,138.262z M 341.739,430.99L 341.739,430.99L 341.739,430.99l-36.745-88.71  C 289.902,348.539, 273.356,352.00, 256.00,352.00s-33.901-3.461-48.993-9.72l-17.23,41.599l-19.515,47.112C 196.673,441.943, 225.628,448.00, 256.00,448.00  C 286.373,448.00, 315.327,441.943, 341.739,430.99z M 49.01,309.738l 47.112-19.515l 41.599-17.23C 131.462,257.901, 128.00,241.355, 128.00,224.00  s 3.461-33.901, 9.72-48.993l-88.71-36.745C 38.057,164.673, 32.00,193.627, 32.00,224.00C 32.00,254.373, 38.057,283.327, 49.01,309.738z   M 170.262,17.01l 11.452,27.647l 25.293,61.063C 222.099,99.461, 238.645,96.00, 256.00,96.00s 33.901,3.461, 48.993,9.72l 36.745-88.71l0.00,0.00l0.00,0.00  C 315.327,6.058, 286.373,0.00, 256.00,0.00C 225.628,0.00, 196.673,6.057, 170.262,17.01z" data-tags="support, help"/>
<glyph unicode="" d="M 457.153,376.352C 393.803,412.366, 303.223,416.00, 256.071,416.00c-0.027-0.024-0.048-0.056-0.066-0.078   c-0.029,0.023-0.049,0.053-0.077,0.078c-47.151,0.00-137.73-3.638-201.08-39.648C 1.581,346.068, 0.001,313.643, 0.001,291.003l0.00-3.397    c0.00-5.182, 4.469-9.418, 9.926-9.418l 120.146,0.00 c 5.457,0.00, 9.926,4.236, 9.926,9.418l0.00,11.453 c0.00,28.607, 27.356,33.178, 42.449,35.605   s 52.618,4.777, 73.48,4.777c 0.028,0.00, 0.048,0.00, 0.077,0.00c 0.02,0.00, 0.04,0.00, 0.066,0.00c 20.863,0.00, 58.384-2.351, 73.48-4.777   c 15.094-2.43, 42.449-7.00, 42.449-35.605l0.00-11.453 c0.00-5.182, 4.469-9.418, 9.928-9.418l 120.145,0.00 c 5.459,0.00, 9.928,4.236, 9.928,9.418l0.00,3.397    C 512.00,313.643, 510.42,346.068, 457.153,376.352zM 256.006,281.792c-28.374,0.00-87.448,4.082-117.461-32.311C 108.523,213.097, 33.455,32.00, 100.398,32.00   c 66.956,0.00, 125.458,0.00, 155.606,0.00c 30.136,0.00, 88.648,0.00, 155.595,0.00c 66.945,0.00-8.125,181.097-38.137,217.481   C 343.444,285.874, 284.367,281.792, 256.006,281.792z M 256.00,80.00c-44.183,0.00-80.00,35.817-80.00,80.00s 35.817,80.00, 80.00,80.00s 80.00-35.817, 80.00-80.00   S 300.183,80.00, 256.00,80.00z" data-tags="phone, contact, support"/>
<glyph unicode="" d="M 321.788,108.854c-11.188-6.236-20.175-2.064-32.764,4.572c-11.46,8.748-45.402,35.438-81.226,71.188   c-26.156,33.084-46.162,64.288-55.375,79.293c-0.625,1.66-0.944,2.632-0.944,2.632c-5.397,13.476-8.771,22.92-1.324,33.521   c 6.854,9.727, 9.50,12.383, 18.24,20.108L 80.605,450.292c-10.604-7.728-27.018-25.106-40.509-44.378   c-12.538-18.317-23.154-38.587-26.049-53.055c 15.295-55.117, 52.258-157.896, 120.583-231.325l-0.021-0.308   C 200.339,40.198, 304.774-10.204, 360.18-32.00c 14.679,1.385, 35.938,9.844, 55.456,20.404c 20.598,11.415, 39.567,25.945, 48.329,35.685   L 343.677,124.918C 335.08,117.008, 332.179,114.664, 321.788,108.854zM 205.61,351.342c 7.241,5.302, 5.313,14.944, 1.926,20.245L 140.957,473.50c-4.344,5.291-13.396,8.064-21.252,5.579L 92.272,460.698   l 88.034-129.879L 205.61,351.342zM 492.949,82.154l-94.473,76.788c-4.93,3.918-14.313,6.838-20.325,0.188l-23.046-23.05l 120.047-101.015l 21.136,25.357   C 499.573,67.986, 497.755,77.279, 492.949,82.154z" data-tags="phone, contact, support"/>
<glyph unicode="" d="M 480.00,352.00c 17.673,0.00, 32.00,14.327, 32.00,32.00L 512.00,448.00 l-64.00,0.00 L 448.00,480.00 L 32.00,480.00 C 14.40,480.00,0.00,465.601,0.00,448.00l0.00-448.00 c0.00-17.60, 14.398-32.00, 32.00-32.00l 416.00,0.00 L 448.00,96.00 l 32.00,0.00   c 17.673,0.00, 32.00,14.327, 32.00,32.00l0.00,64.00 l-64.00,0.00 l0.00,32.00 l 32.00,0.00 c 17.673,0.00, 32.00,14.327, 32.00,32.00l0.00,64.00 l-64.00,0.00 l0.00,32.00 L 480.00,352.00 z M 288.00,333.255  c 24.992,0.00, 45.255-20.262, 45.255-45.255S 312.992,242.745, 288.00,242.745c-24.994,0.00-45.255,20.262-45.255,45.255  S 263.006,333.255, 288.00,333.255z M 128.00,0.00L 96.00,0.00 L 96.00,448.00 l 32.00,0.00 L 128.00,0.00 z M 208.656,128.00c0.00,96.00, 53.272,96.00, 79.909,96.00c 26.636,0.00, 79.908,0.00, 79.908-96.00L 208.656,128.00 z  " data-tags="address, book, contacts"/>
<glyph unicode="" d="M 32.00,448.00L 80.00,448.00L 80.00,368.00L 32.00,368.00zM 96.00,480.00l0.00-512.00 l 384.00,0.00 L 480.00,480.00 L 96.00,480.00 z M 192.00,96.00c0.00,53.02, 42.98,128.00, 96.00,128.00c-35.346,0.00-64.00,28.654-64.00,64.00s 28.654,64.00, 64.00,64.00   c 35.347,0.00, 64.00-28.654, 64.00-64.00s-28.653-64.00-64.00-64.00c 53.02,0.00, 96.00-74.98, 96.00-128.00L 192.00,96.00 zM 32.00,352.00L 80.00,352.00L 80.00,272.00L 32.00,272.00zM 32.00,256.00L 80.00,256.00L 80.00,176.00L 32.00,176.00zM 32.00,160.00L 80.00,160.00L 80.00,80.00L 32.00,80.00zM 32.00,64.00L 80.00,64.00L 80.00-16.00L 32.00-16.00z" data-tags="address, book, contacts, _new"/>
<glyph unicode="" d="M 449.18,448.00L 64.00,448.00 l0.00-64.00 L 17.18,384.00 C 8.38,384.00,0.00,377.736,0.00,368.936l0.00-32.00 C0.00,328.136, 8.38,320.00, 17.18,320.00L 64.00,320.00 l0.00-32.00 L 17.18,288.00   C 8.38,288.00,0.00,281.736,0.00,272.936l0.00-32.00 C0.00,232.136, 8.38,224.00, 17.18,224.00L 64.00,224.00 l0.00-32.00 L 17.18,192.00 C 8.38,192.00,0.00,185.736,0.00,176.936l0.00-32.00   C0.00,136.137, 8.38,128.00, 17.18,128.00L 64.00,128.00 l0.00-32.00 L 17.18,96.00 C 8.38,96.00,0.00,89.736,0.00,80.936l0.00-32.00 C0.00,40.136, 8.38,32.00, 17.18,32.00L 64.00,32.00 l0.00-64.00 l 385.18,0.00   c 17.674,0.00, 30.82,15.263, 30.82,32.936l0.00,416.00 C 480.00,434.609, 466.854,448.00, 449.18,448.00z M 160.00,0.00L 96.00,0.00 l0.00,32.00 l 17.18,0.00 c 8.80,0.00, 14.82,8.136, 14.82,16.936  l0.00,32.00 c0.00,8.801-6.021,15.064-14.82,15.064L 96.00,96.00 l0.00,32.00 l 17.18,0.00 c 8.80,0.00, 14.82,8.136, 14.82,16.936l0.00,32.00 c0.00,8.801-6.021,15.064-14.82,15.064L 96.00,192.00 l0.00,32.00   l 17.18,0.00 c 8.80,0.00, 14.82,8.136, 14.82,16.936l0.00,32.00 c0.00,8.801-6.021,15.064-14.82,15.064L 96.00,288.00 l0.00,32.00 l 17.18,0.00 c 8.80,0.00, 14.82,8.136, 14.82,16.936l0.00,32.00   C 128.00,377.737, 121.98,384.00, 113.18,384.00L 96.00,384.00 L 96.00,416.00 l 64.00,0.00 L 160.00,0.00 z" data-tags="notebook"/>
<glyph unicode="" d="M 325.608,214.818L 512.00,86.264L 512.00,382.211  zM0.00,382.211L0.00,86.264L 186.388,214.836  zM 256.00,152.309L 211.499,192.264L0.00,64.00L 512.00,64.00L 300.495,192.264  zM 496.64,384.00L 15.36,384.00L 256.00,203.074  z" data-tags="mail, contact, support, newsletter, letter, email"/>
<glyph unicode="" d="M 325.607,118.95L 512.00-9.605L 512.00,286.343  zM0.00,286.343L0.00-9.605L 186.388,118.968  zM 256.00,56.44L 211.499,96.395L0.00-31.868L 512.00-31.868L 300.494,96.395  zM 15.359,288.00L 496.64,288.00L 255.999,468.926  z" data-tags="mail, contact, support, newsletter, letter, email, envelop"/>
<glyph unicode="" d="M0.00,384.00l0.00-320.00 l 512.00,0.00 L 512.00,384.00 L0.00,384.00 z M 442.667,352.00L 256.00,212.00L 69.333,352.00L 442.667,352.00 z M 32.00,96.00L 32.00,340.00 l 224.00-168.00l 224.00,168.00l0.00-244.00 L 32.00,96.00 z" data-tags="mail, contact, support, newsletter, letter, email"/>
<glyph unicode="" d="M0.00,384.00l0.00-320.00 l 512.00,0.00 L 512.00,384.00 L0.00,384.00 z M 448.00,352.00L 320.00,224.00L 192.00,224.00 L 64.00,352.00L 448.00,352.00 z M 32.00,352.00l 128.00-128.00L 32.00,96.00L 32.00,352.00 z M 64.00,96.00l 96.00,96.00l 192.00,0.00 l 96.00-96.00L 64.00,96.00 z M 480.00,96.00  L 352.00,224.00l 128.00,128.00L 480.00,96.00 z" data-tags="mail, contact, support, newsletter, letter, email"/>
<glyph unicode="" d="M 256.00,480.00c-81.67,0.00-147.871-66.202-147.871-147.87c0.00-2.014, 0.061-4.101, 0.16-6.224c 0.05-1.234, 0.126-2.454, 0.209-3.682  c 0.051-0.779, 0.113-1.574, 0.18-2.371c 0.104-1.304, 0.21-2.61, 0.35-3.906C 121.292,196.493, 256.001-32.00, 256.001-32.00  s 134.705,228.492, 146.97,347.948c 0.143,1.295, 0.245,2.603, 0.351,3.905c 0.065,0.797, 0.131,1.592, 0.183,2.371  c 0.084,1.229, 0.158,2.447, 0.21,3.683c 0.097,2.124, 0.157,4.211, 0.157,6.224C 403.866,413.799, 337.666,480.00, 256.00,480.00z M 320.00,320.00  c0.00-35.347-28.654-64.00-64.00-64.00c-35.346,0.00-64.00,28.653-64.00,64.00s 28.654,64.00, 64.00,64.00C 291.346,384.00, 320.00,355.347, 320.00,320.00z" data-tags="location, map marker, pin"/>
<glyph unicode="" d="M 256.00,480.00C 149.961,480.00, 64.00,394.039, 64.00,288.00c0.00-192.00, 192.00-320.00, 192.00-320.00s 192.00,128.00, 192.00,320.00C 448.00,394.039, 362.039,480.00, 256.00,480.00z M 256.00,256.00  c-35.346,0.00-64.00,28.654-64.00,64.00s 28.654,64.00, 64.00,64.00c 35.347,0.00, 64.00-28.654, 64.00-64.00S 291.347,256.00, 256.00,256.00z" data-tags="location, map, marker, pin, _new"/>
<glyph unicode="" d="M 256.00,480.00C 149.961,480.00, 64.00,394.039, 64.00,288.00c0.00-192.00, 192.00-320.00, 192.00-320.00s 192.00,128.00, 192.00,320.00C 448.00,394.039, 362.039,480.00, 256.00,480.00z M 322.991,83.627   c-24.718-29.093-49.754-51.45-66.991-65.485c-17.237,14.035-42.274,36.393-66.991,65.485   c-25.119,29.565-45.03,60.251-59.181,91.204C 112.689,212.317, 104.00,250.393, 104.00,288.00c0.00,40.601, 15.811,78.771, 44.52,107.48   S 215.399,440.00, 256.00,440.00s 78.771-15.811, 107.48-44.52S 408.00,328.601, 408.00,288.00c0.00-37.607-8.689-75.683-25.827-113.169   C 368.021,143.878, 348.11,113.192, 322.991,83.627zM 256.00,368.00c 26.468,0.00, 48.00-21.533, 48.00-48.00s-21.532-48.00-48.00-48.00c-26.467,0.00-48.00,21.533-48.00,48.00S 229.533,368.00, 256.00,368.00 M 256.00,400.00   c-44.183,0.00-80.00-35.817-80.00-80.00s 35.817-80.00, 80.00-80.00c 44.184,0.00, 80.00,35.817, 80.00,80.00S 300.184,400.00, 256.00,400.00L 256.00,400.00z" data-tags="location, map, marker, pin, _new"/>
<glyph unicode="" d="M 256.00,480.00C 167.635,480.00, 96.00,412.843, 96.00,330.00c0.00-120.00, 128.00-160.73, 128.00-330.00l0.00-16.00 c0.00-8.449, 6.551-15.363, 14.85-15.955L 238.85-32.00 L 272.00-32.00   c 8.836,0.00, 16.00,7.163, 16.00,16.00l0.00,16.00 c0.00,169.27, 128.00,210.00, 128.00,330.00C 416.00,412.843, 344.365,480.00, 256.00,480.00z" data-tags="location, map marker, pin"/>
<glyph unicode="" d="M 256.00,480.00C 114.615,480.00,0.00,365.385,0.00,224.00s 114.615-256.00, 256.00-256.00s 256.00,114.615, 256.00,256.00S 397.385,480.00, 256.00,480.00z M 256.00,0.00   C 132.288,0.00, 32.00,100.288, 32.00,224.00l 170.667-28.444L 128.00,96.00l 99.556,74.667L 256.00,0.00l 28.444,170.667L 384.00,96.00l-74.667,99.556L 480.00,224.00   l-170.667,28.444L 384.00,352.00l-99.556-74.667L 256.00,448.00l-28.444-170.667L 128.00,352.00l 74.667-99.556L 32.00,224.00l0.00,0.00 C 32.00,347.712, 132.288,448.00, 256.00,448.00   s 224.00-100.288, 224.00-224.00S 379.712,0.00, 256.00,0.00z" data-tags="compass, map, navigation, location"/>
<glyph unicode="" d="M 256.00,480.00C 114.615,480.00,0.00,365.385,0.00,224.00s 114.615-256.00, 256.00-256.00s 256.00,114.615, 256.00,256.00S 397.385,480.00, 256.00,480.00z M 256.00,0.00   C 132.288,0.00, 32.00,100.288, 32.00,224.00S 132.288,448.00, 256.00,448.00s 224.00-100.288, 224.00-224.00S 379.712,0.00, 256.00,0.00zM 128.00,96.00l 169.373,79.17L 384.00,352.00l-173.255-82.745L 128.00,96.00z M 256.00,256.00c 17.673,0.00, 32.00-14.327, 32.00-32.00c0.00-17.673-14.327-32.00-32.00-32.00   c-17.673,0.00-32.00,14.327-32.00,32.00C 224.00,241.673, 238.327,256.00, 256.00,256.00z" data-tags="compass, location, map"/>
<glyph unicode="" d="M0.00,0.00L 160.00,64.00L 160.00,448.00L0.00,384.00  zM 176.00,64.00L 336.00,0.00L 336.00,384.00L 176.00,448.00  zM 352.00,384.00L 352.00,0.00L 512.00,64.00L 512.00,448.00  z" data-tags="map, location"/>
<glyph unicode="" d="M 320.00,384.00L 160.00,480.00L0.00,415.719L0.00,0.00 l 160.00,64.00l 160.00-96.00l 192.00,96.00L 512.00,480.00 L 320.00,384.00z M 168.00,437.881l 144.00-86.40l0.00-341.363 l-144.00,86.399L 168.00,437.881 z M 32.00,394.089  L 152.00,442.30l0.00-347.034 L 32.00,47.265L 32.00,394.089 z M 480.00,83.777l-152.00-76.00L 328.00,352.223 l 152.00,76.00L 480.00,83.777 z" data-tags="map, location"/>
<glyph unicode="" d="M 256.00,352.00L 256.00,192.00L 384.00,192.00L 384.00,224.00L 288.00,224.00L 288.00,352.00  zM 288.00,448.00C 164.288,448.00, 64.00,347.712, 64.00,224.00L0.00,224.00 l 80.00-96.00l 80.00,96.00L 96.00,224.00 c0.00,106.039, 85.961,192.00, 192.00,192.00c 106.039,0.00, 192.00-85.961, 192.00-192.00   c0.00-106.039-85.961-192.00-192.00-192.00c-10.904,0.00-21.592,0.923-32.00,2.67l0.00-32.385 c 10.453-1.495, 21.134-2.285, 32.00-2.285   c 123.712,0.00, 224.00,100.288, 224.00,224.00S 411.712,448.00, 288.00,448.00z" data-tags="history, archive"/>
<glyph unicode="" d="M 240.00,448.00C 107.452,448.00,0.00,340.548,0.00,208.00c0.00-132.549, 107.452-240.00, 240.00-240.00c 132.549,0.00, 240.00,107.451, 240.00,240.00   C 480.00,340.548, 372.549,448.00, 240.00,448.00z M 240.00,0.00c-114.875,0.00-208.00,93.125-208.00,208.00S 125.125,416.00, 240.00,416.00s 208.00-93.125, 208.00-208.00   S 354.875,0.00, 240.00,0.00zM 256.00,253.258L 256.00,384.00 l-32.00,0.00 l0.00-130.742 c-18.641-6.59-32.00-24.36-32.00-45.258c0.00-26.51, 21.49-48.00, 48.00-48.00c 20.898,0.00, 38.667,13.359, 45.258,32.00   L 384.00,192.00 l0.00,32.00 l-98.742,0.00 C 280.438,237.635, 269.636,248.437, 256.00,253.258z" data-tags="clock, time, history"/>
<glyph unicode="" d="M 240.00,448.00C 107.452,448.00,0.00,340.548,0.00,208.00c0.00-132.549, 107.452-240.00, 240.00-240.00c 132.549,0.00, 240.00,107.451, 240.00,240.00  C 480.00,340.548, 372.549,448.00, 240.00,448.00z M 384.00,192.00l-98.742,0.00 c-6.591-18.641-24.359-32.00-45.258-32.00c-26.51,0.00-48.00,21.49-48.00,48.00  c0.00,20.898, 13.359,38.667, 32.00,45.258L 224.00,384.00 l 32.00,0.00 l0.00-130.742 c 13.636-4.821, 24.438-15.623, 29.258-29.258L 384.00,224.00 L 384.00,192.00 z" data-tags="clock, time, history"/>
<glyph unicode="" d="M 256.001,383.394L 256.001,416.00 l 64.00,0.00 L 320.001,448.00 c0.00,17.673-14.327,32.00-32.001,32.00l-95.999,0.00 c-17.673,0.00-32.00-14.327-32.00-32.00l0.00-32.00 l 64.00,0.00 l0.00-32.606   c-107.399-8.169-192.00-97.901-192.00-207.394c0.00-114.875, 93.125-208.00, 208.00-208.00c 114.875,0.00, 208.00,93.125, 208.00,208.00  C 448.001,285.492, 363.40,375.224, 256.001,383.394z M 353.138,62.863C 322.917,32.643, 282.739,16.00, 240.001,16.00  s-82.917,16.643-113.137,46.863C 96.644,93.083, 80.001,133.263, 80.001,176.00s 16.643,82.917, 46.863,113.137  c 29.02,29.019, 67.224,45.509, 108.057,46.774l-10.839-157.01C 223.152,165.756, 230.314,160.00, 240.00,160.00  c 9.686,0.00, 16.849,5.756, 15.918,18.901L 245.08,335.912c 40.833-1.266, 79.038-17.756, 108.058-46.775  c 30.22-30.22, 46.863-70.40, 46.863-113.137S 383.358,93.083, 353.138,62.863z" data-tags="stopwatch, time"/>
<glyph unicode="" d="M 256.00,416.00C 132.288,416.00, 32.00,315.712, 32.00,192.00s 100.288-224.00, 224.00-224.00s 224.00,100.288, 224.00,224.00S 379.712,416.00, 256.00,416.00z M 256.00,0.00  c-106.039,0.00-192.00,85.961-192.00,192.00c0.00,106.039, 85.961,192.00, 192.00,192.00c 106.039,0.00, 192.00-85.961, 192.00-192.00C 448.00,85.961, 362.039,0.00, 256.00,0.00zM 467.392,336.413C 475.413,350.439, 480.00,366.684, 480.00,384.00c0.00,53.02-42.98,96.00-96.00,96.00c-30.909,0.00-58.401-14.611-75.96-37.298  C 373.982,429.084, 430.643,390.103, 467.392,336.413zM 203.96,442.702C 186.402,465.389, 158.909,480.00, 128.00,480.00c-53.02,0.00-96.00-42.98-96.00-96.00c0.00-17.316, 4.587-33.561, 12.608-47.587  C 81.358,390.103, 138.019,429.084, 203.96,442.702zM 224.00,320.00L 256.00,320.00L 256.00,160.00L 224.00,160.00zM 256.00,192.00L 352.00,192.00L 352.00,160.00L 256.00,160.00z" data-tags="alarm, time, clock"/>
<glyph unicode="" d="M 256.00,384.00C 149.962,384.00, 64.00,298.039, 64.00,192.00s 85.961-192.00, 192.00-192.00c 106.037,0.00, 192.00,85.961, 192.00,192.00S 362.037,384.00, 256.00,384.00z    M 357.822,90.177C 330.626,62.979, 294.464,48.00, 256.00,48.00s-74.625,14.979-101.823,42.177C 126.979,117.374, 112.00,153.536, 112.00,192.00   s 14.979,74.625, 42.177,101.823C 181.375,321.021, 217.536,336.00, 256.00,336.00s 74.626-14.979, 101.821-42.177   C 385.022,266.625, 400.00,230.464, 400.00,192.00S 385.021,117.374, 357.822,90.177zM 162.965,378.069l-21.47,42.939C 92.058,396.24, 51.76,355.942, 26.992,306.504l 42.938-21.47   C 90.054,325.202, 122.796,357.945, 162.965,378.069zM 442.067,285.035l 42.939,21.469C 460.24,355.942, 419.943,396.24, 370.504,421.008l-21.472-42.939   C 389.201,357.945, 421.944,325.203, 442.067,285.035zM 256.00,288.00l-32.00,0.00 l0.00-96.00 c0.00-5.055, 2.35-9.555, 6.011-12.486l-0.006-0.008l 80.00-64.00l 19.988,24.988L 256.00,199.689L 256.00,288.00 z" data-tags="alarm, time, clock"/>
<glyph unicode="" d="M 448.00,224.00c0.00,83.596-53.431,154.70-128.00,181.06L 320.00,480.00 L 192.00,480.00 l0.00-74.94 C 117.431,378.70, 64.00,307.596, 64.00,224.00s 53.431-154.70, 128.00-181.06L 192.00-32.00 l 128.00,0.00    l0.00,74.94 C 394.569,69.30, 448.00,140.404, 448.00,224.00z M 256.00,64.00c-42.738,0.00-82.917,16.643-113.137,46.862C 112.643,141.083, 96.00,181.263, 96.00,224.00   s 16.643,82.917, 46.863,113.137C 173.083,367.357, 213.263,384.00, 256.00,384.00s 82.917-16.643, 113.138-46.863   C 399.357,306.917, 416.00,266.738, 416.00,224.00c0.00-42.737-16.643-82.917-46.862-113.138C 338.917,80.643, 298.737,64.00, 256.00,64.00zM 256.00,352.00L 224.00,352.00L 224.00,192.00L 352.00,192.00L 352.00,224.00L 256.00,224.00  z" data-tags="wrist watch, time, _new"/>
<glyph unicode="" d="M 501.021,62.113c-140.30,107.046-72.555,323.751-213.153,351.036C 287.95,414.089, 288.00,415.039, 288.00,416.00   c0.00,17.673-14.327,32.00-32.00,32.00s-32.00-14.327-32.00-32.00c0.00-0.961, 0.05-1.911, 0.133-2.851C 83.533,385.865, 151.281,169.154, 10.975,62.11   C 3.847,57.687,0.00,52.996,0.00,48.135c0.00-23.663, 90.814-43.338, 210.485-47.376C 216.858-18.276, 234.821-32.00, 256.00-32.00   s 39.143,13.724, 45.515,32.759C 421.187,4.797, 512.00,24.472, 512.00,48.135C 512.00,52.997, 508.152,57.688, 501.021,62.113z M 240.00,416.00   c0.00,8.822, 7.178,16.00, 16.00,16.00s 16.00-7.178, 16.00-16.00c0.00-0.223-0.024-0.44-0.033-0.661C 266.885,415.773, 261.571,416.00, 256.00,416.00c0.00,0.00,0.00,0.00,0.00,0.00   c-5.57,0.00-10.884-0.227-15.966-0.661C 240.025,415.56, 240.00,415.777, 240.00,416.00z M 474.87,40.282c-13.285-4.647-30.995-8.831-52.639-12.434   c-33.648-5.603-74.515-9.35-118.255-10.938C 303.49,42.998, 282.204,64.00, 256.00,64.00c-26.205,0.00-47.49-21.002-47.977-47.09   c-43.739,1.589-84.605,5.336-118.253,10.938c-21.644,3.603-39.355,7.786-52.64,12.434c-9.435,3.30-14.418,6.083-16.949,7.853   c 2.531,1.769, 7.514,4.551, 16.949,7.852c 13.285,4.647, 30.996,8.831, 52.64,12.434c 45.718,7.612, 104.753,11.804, 166.23,11.804   c 61.478,0.00, 120.513-4.191, 166.231-11.804c 21.644-3.603, 39.354-7.786, 52.639-12.434c 9.435-3.301, 14.418-6.083, 16.949-7.852   C 489.288,46.365, 484.305,43.582, 474.87,40.282zM 511.045,54.874c-0.023,0.016-0.047,0.033-0.069,0.049c 0.02-0.016, 0.037-0.033, 0.057-0.049L 511.045,54.874 zM 1.031,54.928c-0.025-0.018-0.051-0.036-0.076-0.054l 0.014-0.001C 0.99,54.892, 1.009,54.91, 1.031,54.928z" data-tags="bell, alarm, notification"/>
<glyph unicode="" d="M 512.00,64.00c-53.021,0.00-96.00,42.98-96.00,96.00L 416.00,302.545 c0.00,70.369-54.971,129.064-128.00,142.542L 288.00,480.00 l-64.00,0.00 l0.00-34.912   C 150.968,431.609, 96.00,372.915, 96.00,302.546L 96.00,160.00 c0.00-53.02-42.981-96.00-96.00-96.00l0.00-32.00 l 214.799,0.00 c-2.604-5.712-4.055-12.059-4.055-18.745  C 210.744-11.738, 231.006-32.00, 256.00-32.00c 24.992,0.00, 45.255,20.262, 45.255,45.255c0.00,6.688-1.451,13.033-4.056,18.745L 512.00,32.00 L 512.00,64.00 z" data-tags="bell, alarm, notification"/>
<glyph unicode="" d="M 512.00,64.00c-53.021,0.00-96.00,42.98-96.00,96.00L 416.00,302.545 c0.00,70.37-54.971,129.064-128.00,142.543L 288.00,480.00 l-64.00,0.00 l0.00-34.912   C 150.969,431.609, 96.00,372.915, 96.00,302.545L 96.00,160.00 c0.00-53.02-42.981-96.00-96.00-96.00l0.00-32.00 l 214.799,0.00 c-2.604-5.712-4.054-12.06-4.054-18.745  C 210.745-11.739, 231.006-32.00, 256.00-32.00c 24.993,0.00, 45.255,20.261, 45.255,45.255c0.00,6.687-1.452,13.033-4.055,18.745L 512.00,32.00 L 512.00,64.00 z M 352.00,160.00  l-32.00-32.00l-64.00,64.00l-64.00-64.00l-32.00,32.00l 64.00,64.00l-64.00,64.00l 32.00,32.00l 64.00-64.00l 64.00,64.00l 32.00-32.00l-64.00-64.00L 352.00,160.00z" data-tags="bell, alarm, notification"/>
<glyph unicode="" d="M 512.00,64.00c-53.02,0.00-96.00,42.98-96.00,96.00L 416.00,302.546 c0.00,70.369-54.97,129.064-128.00,142.542L 288.00,480.00 l-64.00,0.00 l0.00-34.912   C 150.97,431.61, 96.00,372.915, 96.00,302.546L 96.00,160.00 c0.00-53.02-42.98-96.00-96.00-96.00l0.00-32.00 l 214.80,0.00 c-2.604-5.712-4.055-12.059-4.055-18.745  C 210.745-11.738, 231.007-32.00, 256.00-32.00c 24.994,0.00, 45.255,20.262, 45.255,45.255c0.00,6.688-1.451,13.033-4.054,18.745L 512.00,32.00 L 512.00,64.00 z M 224.00,128.00  l-96.00,96.00l 32.00,32.00l 64.00-64.00l 128.00,128.00l 32.00-32.00L 224.00,128.00z" data-tags="bell, alarm, notification"/>
<glyph unicode="" d="M0.00,0.00c0.00-17.674, 14.327-32.00, 32.00-32.00l 448.00,0.00 c 17.674,0.00, 32.00,14.326, 32.00,32.00L 512.00,288.00 L0.00,288.00 L0.00,0.00 z M 352.00,256.00l 128.00,0.00 l0.00-64.00 L 352.00,192.00 L 352.00,256.00 z M 352.00,160.00l 128.00,0.00 l0.00-64.00 L 352.00,96.00    L 352.00,160.00 z M 352.00,64.00l 128.00,0.00 l0.00-64.00 L 352.00,0.00 L 352.00,64.00 z M 192.00,256.00l 128.00,0.00 l0.00-64.00 L 192.00,192.00 L 192.00,256.00 z M 192.00,160.00l 128.00,0.00 l0.00-64.00 L 192.00,96.00 L 192.00,160.00 z M 192.00,64.00l 128.00,0.00 l0.00-64.00 L 192.00,0.00 L 192.00,64.00 z M 32.00,256.00l 128.00,0.00 l0.00-64.00 L 32.00,192.00    L 32.00,256.00 z M 32.00,160.00l 128.00,0.00 l0.00-64.00 L 32.00,96.00 L 32.00,160.00 z M 32.00,64.00l 128.00,0.00 l0.00-64.00 L 32.00,0.00 L 32.00,64.00 zM 480.00,416.00l-64.00,0.00 L 416.00,461.714 C 416.00,471.813, 408.837,480.00, 400.00,480.00c-8.836,0.00-16.00-8.187-16.00-18.286L 384.00,416.00 L 128.00,416.00 L 128.00,461.714 C 128.00,471.813, 120.837,480.00, 112.00,480.00   S 96.00,471.813, 96.00,461.714L 96.00,416.00 L 32.00,416.00 C 14.327,416.00,0.00,401.673,0.00,384.00l0.00-64.00 l 512.00,0.00 L 512.00,384.00 C 512.00,401.673, 497.673,416.00, 480.00,416.00z M 112.00,336.00c-17.673,0.00-32.00,14.327-32.00,32.00   c0.00,11.842, 6.438,22.174, 16.00,27.708L 96.00,368.00 c0.00-8.836, 7.164-16.00, 16.00-16.00s 16.00,7.164, 16.00,16.00L 128.00,395.708 c 9.562-5.534, 16.00-15.866, 16.00-27.708   C 144.00,350.327, 129.673,336.00, 112.00,336.00z M 400.00,336.00c-17.672,0.00-32.00,14.327-32.00,32.00c0.00,11.842, 6.438,22.174, 16.00,27.708L 384.00,368.00    c0.00-8.836, 7.164-16.00, 16.00-16.00c 8.837,0.00, 16.00,7.164, 16.00,16.00L 416.00,395.708 c 9.563-5.534, 16.00-15.866, 16.00-27.708C 432.00,350.327, 417.674,336.00, 400.00,336.00z" data-tags="calendar, schedule, date, time"/>
<glyph unicode="" d="M 160.00,288.00L 224.00,288.00L 224.00,224.00L 160.00,224.00zM 256.00,288.00L 320.00,288.00L 320.00,224.00L 256.00,224.00zM 352.00,288.00L 416.00,288.00L 416.00,224.00L 352.00,224.00zM 64.00,96.00L 128.00,96.00L 128.00,32.00L 64.00,32.00zM 160.00,96.00L 224.00,96.00L 224.00,32.00L 160.00,32.00zM 256.00,96.00L 320.00,96.00L 320.00,32.00L 256.00,32.00zM 160.00,192.00L 224.00,192.00L 224.00,128.00L 160.00,128.00zM 256.00,192.00L 320.00,192.00L 320.00,128.00L 256.00,128.00zM 352.00,192.00L 416.00,192.00L 416.00,128.00L 352.00,128.00zM 64.00,192.00L 128.00,192.00L 128.00,128.00L 64.00,128.00zM 416.00,480.00l0.00-32.00 l-64.00,0.00 L 352.00,480.00 L 128.00,480.00 l0.00-32.00 L 64.00,448.00 L 64.00,480.00 L0.00,480.00 l0.00-512.00 l 480.00,0.00 L 480.00,480.00 L 416.00,480.00 z M 448.00,0.00L 32.00,0.00 L 32.00,352.00 l 416.00,0.00 L 448.00,0.00 z" data-tags="calendar, schedule, date, time"/>
<glyph unicode="" d="M 64.00,320.00L 96.00,320.00L 96.00,288.00L 64.00,288.00zM 128.00,320.00L 160.00,320.00L 160.00,288.00L 128.00,288.00zM 192.00,320.00L 224.00,320.00L 224.00,288.00L 192.00,288.00zM 256.00,320.00L 288.00,320.00L 288.00,288.00L 256.00,288.00zM 320.00,320.00L 352.00,320.00L 352.00,288.00L 320.00,288.00zM 384.00,320.00L 416.00,320.00L 416.00,288.00L 384.00,288.00zM 64.00,256.00L 96.00,256.00L 96.00,224.00L 64.00,224.00zM 128.00,256.00L 160.00,256.00L 160.00,224.00L 128.00,224.00zM 192.00,256.00L 224.00,256.00L 224.00,224.00L 192.00,224.00zM 256.00,256.00L 288.00,256.00L 288.00,224.00L 256.00,224.00zM 320.00,256.00L 352.00,256.00L 352.00,224.00L 320.00,224.00zM 384.00,256.00L 416.00,256.00L 416.00,224.00L 384.00,224.00zM 64.00,192.00L 96.00,192.00L 96.00,160.00L 64.00,160.00zM 128.00,192.00L 160.00,192.00L 160.00,160.00L 128.00,160.00zM 192.00,192.00L 224.00,192.00L 224.00,160.00L 192.00,160.00zM 256.00,192.00L 288.00,192.00L 288.00,160.00L 256.00,160.00zM 320.00,192.00L 352.00,192.00L 352.00,160.00L 320.00,160.00zM 384.00,192.00L 416.00,192.00L 416.00,160.00L 384.00,160.00zM 64.00,128.00L 96.00,128.00L 96.00,96.00L 64.00,96.00zM 128.00,128.00L 160.00,128.00L 160.00,96.00L 128.00,96.00zM 192.00,128.00L 224.00,128.00L 224.00,96.00L 192.00,96.00zM 256.00,128.00L 288.00,128.00L 288.00,96.00L 256.00,96.00zM 320.00,128.00L 352.00,128.00L 352.00,96.00L 320.00,96.00zM 384.00,128.00L 416.00,128.00L 416.00,96.00L 384.00,96.00zM 64.00,64.00L 96.00,64.00L 96.00,32.00L 64.00,32.00zM 128.00,64.00L 160.00,64.00L 160.00,32.00L 128.00,32.00zM 192.00,64.00L 224.00,64.00L 224.00,32.00L 192.00,32.00zM 256.00,64.00L 288.00,64.00L 288.00,32.00L 256.00,32.00zM 320.00,64.00L 352.00,64.00L 352.00,32.00L 320.00,32.00zM 384.00,64.00L 416.00,64.00L 416.00,32.00L 384.00,32.00zM 416.00,448.00L 416.00,480.00 l-64.00,0.00 l0.00-64.00 l-32.00,0.00 L 320.00,448.00 L 160.00,448.00 l0.00-32.00 l-32.00,0.00 L 128.00,480.00 L 64.00,480.00 l0.00-32.00 L0.00,448.00 l0.00-480.00 l 480.00,0.00 L 480.00,448.00 L 416.00,448.00 z M 448.00,0.00L 32.00,0.00 L 32.00,352.00 l 416.00,0.00 L 448.00,0.00 z" data-tags="calendar, schedule, date, time"/>
<glyph unicode="" d="M 510.225,95.951l-12.449,224.098C 496.799,337.622, 481.60,352.00, 464.00,352.00l-80.00,0.00 L 384.00,480.00 L 128.00,480.00 l0.00-128.00 L 48.00,352.00   c-17.601,0.00-32.799-14.378-33.775-31.951L 1.775,95.951C 0.799,78.378, 14.40,64.00, 32.00,64.00l 70.40,0.00 L 64.00-32.00l 384.00,0.00 l-38.40,96.00L 480.00,64.00   C 497.60,64.00, 511.20,78.378, 510.225,95.951z M 160.00,448.00l 192.00,0.00 l0.00-96.00 L 160.00,352.00 L 160.00,448.00 z M 111.265,0.00l 38.40,96.00l 212.67,0.00 l 38.40-96.00L 111.265,0.00 z M 448.00,256.00l-32.00,0.00 l0.00,64.00   l 32.00,0.00 L 448.00,256.00 z" data-tags="printer"/>
<glyph unicode="" d="M 128.00,448.00L 384.00,448.00L 384.00,384.00L 128.00,384.00zM 480.00,352.00L 32.00,352.00 C 14.40,352.00,0.00,337.60,0.00,320.00l0.00-160.00 c0.00-17.60, 14.398-32.00, 32.00-32.00l 96.00,0.00 l0.00-128.00 l 256.00,0.00 L 384.00,128.00 l 96.00,0.00 c 17.60,0.00, 32.00,14.40, 32.00,32.00L 512.00,320.00    C 512.00,337.60, 497.60,352.00, 480.00,352.00z M 352.00,32.00L 160.00,32.00 L 160.00,192.00 l 192.00,0.00 L 352.00,32.00 z M 487.20,304.00c0.00-12.813-10.387-23.20-23.199-23.20   c-12.813,0.00-23.201,10.387-23.201,23.20s 10.388,23.20, 23.201,23.20C 476.814,327.20, 487.20,316.813, 487.20,304.00z" data-tags="printer"/>
<glyph unicode="" d="M 448.00,192.00L 448.00,64.00L 64.00,64.00L 64.00,192.00L0.00,192.00L0.00,0.00L 512.00,0.00L 512.00,192.00   zM 416.00,448.00L 96.00,448.00 l0.00-352.00 l 320.00,0.00 L 416.00,448.00 z M 352.00,160.00L 160.00,160.00 l0.00,32.00 l 192.00,0.00 L 352.00,160.00 z M 352.00,256.00L 160.00,256.00 l0.00,32.00 l 192.00,0.00 L 352.00,256.00 z M 352.00,352.00L 160.00,352.00 L 160.00,384.00 l 192.00,0.00 L 352.00,352.00 z" data-tags="printer"/>
<glyph unicode="" d="M 320.00,440.571L 320.00,288.00 L 192.00,288.00 L 192.00,440.571 C 144.201,429.454, 96.00,403.976, 96.00,352.00l0.00-212.00 c0.00-77.318, 71.634-140.00, 160.00-140.00c 88.363,0.00, 160.00,62.682, 160.00,140.00   L 416.00,352.00 C 416.00,403.976, 367.799,429.454, 320.00,440.571zM 288.00,446.067C 276.277,447.421, 265.321,448.00, 256.00,448.00c-9.32,0.00-20.276-0.579-32.00-1.933L 224.00,320.00 l 64.00,0.00 L 288.00,446.067 z" data-tags="mouse"/>
<glyph unicode="" d="M 175.969,326.209c-5.938,13.454-11.155,29.354-12.292,46.276c-2.525,37.667, 16.813,68.662, 57.478,92.133  c 3.938,2.285, 5.283,7.325, 3.011,11.258c-2.272,3.95-7.313,5.294-11.251,3.016c-46.553-26.885-68.658-63.052-65.675-107.517  c 1.323-19.704, 7.561-38.151, 14.315-53.254c-56.096-36.564-74.594-111.689-40.73-170.352l 67.085-116.184  c 35.02-60.669, 113.312-81.643, 173.972-46.625l 0.005,0.00 c 60.66,35.034, 81.645,113.321, 46.62,173.979l-67.084,116.193  C 308.016,332.998, 235.257,354.711, 175.969,326.209z M 257.638,212.602c 5.182-8.974, 2.074-20.541-6.888-25.729l-8.156-4.699  c-8.969-5.186-20.546-2.083-25.718,6.887l-28.241,48.907c-5.178,8.969-2.078,20.541, 6.894,25.729l 8.155,4.699  c 8.964,5.191, 20.536,2.077, 25.715-6.888L 257.638,212.602z" data-tags="mouse"/>
<glyph unicode="" d="M 240.00,448.00c-48.00,0.00-144.00-18.68-144.00-96.00l0.00-212.00 c0.00-77.318, 64.471-140.00, 144.00-140.00c 79.528,0.00, 144.00,62.682, 144.00,140.00L 384.00,352.00 C 384.00,429.32, 288.00,448.00, 240.00,448.00z   M 352.00,140.00c0.00-28.677-11.537-55.686-32.484-76.051c-10.287-10.002-22.277-17.857-35.635-23.353C 270.008,34.893, 255.245,32.00, 240.00,32.00  s-30.009,2.893-43.881,8.598c-13.358,5.494-25.35,13.351-35.637,23.353C 139.536,84.314, 128.00,111.323, 128.00,140.00L 128.00,256.00 l 224.00,0.00 L 352.00,140.00 z M 352.00,288.00  l-96.00,0.00 L 256.00,416.00 c 18.868-1.633, 41.422-6.904, 60.204-15.878c 11.805-5.641, 20.795-12.391, 26.721-20.063C 349.03,372.152, 352.00,362.973, 352.00,352.00L 352.00,288.00   z" data-tags="mouse, click, left"/>
<glyph unicode="" d="M 239.999,448.00C 192.00,448.00, 96.00,429.32, 96.00,352.00l0.00-212.00 c0.00-77.318, 64.471-140.00, 143.999-140.00S 384.00,62.682, 384.00,140.00L 384.00,352.00   C 384.00,429.32, 288.00,448.00, 239.999,448.00z M 128.00,352.00c0.00,10.974, 2.969,20.152, 9.076,28.06c 5.924,7.672, 14.915,14.422, 26.72,20.063  C 182.578,409.098, 205.132,414.368, 224.00,416.00l0.00-128.00 l-96.00,0.00 L 128.00,352.00 z M 352.00,140.00c0.00-28.677-11.537-55.686-32.484-76.051  c-10.287-10.002-22.277-17.857-35.635-23.353c-13.873-5.704-28.637-8.597-43.882-8.597c-15.244,0.00-30.008,2.893-43.881,8.598  c-13.357,5.494-25.349,13.351-35.636,23.353C 139.536,84.314, 128.00,111.324, 128.00,140.001L 128.00,256.00 l 224.00,0.00 L 352.00,140.00 L 352.00,140.00z" data-tags="mouse, click, right"/>
<glyph unicode="" d="M 448.00,352.00L 32.00,352.00 c-17.60,0.00-32.00-14.40-32.00-32.00l0.00-224.00 c0.00-17.60, 14.40-32.00, 32.00-32.00l 416.00,0.00 c 17.60,0.00, 32.00,14.40, 32.00,32.00L 480.00,320.00 C 480.00,337.60, 465.60,352.00, 448.00,352.00z    M 448.00,96.058c-0.017-0.02-0.038-0.041-0.058-0.058L 32.057,96.00 c-0.02,0.017-0.041,0.038-0.057,0.058L 32.00,319.943    c 0.017,0.02, 0.038,0.041, 0.057,0.057l 415.885,0.00 c 0.02-0.017, 0.041-0.038, 0.058-0.058L 448.00,96.058 zM 128.00,160.00L 352.00,160.00L 352.00,128.00L 128.00,128.00zM 352.00,224.00L 384.00,224.00L 384.00,192.00L 352.00,192.00zM 288.00,224.00L 320.00,224.00L 320.00,192.00L 288.00,192.00zM 224.00,224.00L 256.00,224.00L 256.00,192.00L 224.00,192.00zM 160.00,224.00L 192.00,224.00L 192.00,192.00L 160.00,192.00zM 96.00,224.00L 128.00,224.00L 128.00,192.00L 96.00,192.00zM 320.00,288.00L 352.00,288.00L 352.00,256.00L 320.00,256.00zM 384.00,288.00L 416.00,288.00L 416.00,256.00L 384.00,256.00zM 256.00,288.00L 288.00,288.00L 288.00,256.00L 256.00,256.00zM 192.00,288.00L 224.00,288.00L 224.00,256.00L 192.00,256.00zM 128.00,288.00L 160.00,288.00L 160.00,256.00L 128.00,256.00zM 64.00,288.00L 96.00,288.00L 96.00,256.00L 64.00,256.00z" data-tags="keyboard, type, typing"/>
<glyph unicode="" d="M0.00,448.00l0.00-320.00 l 512.00,0.00 L 512.00,448.00 L0.00,448.00 z M 480.00,160.00L 32.00,160.00 L 32.00,416.00 l 448.00,0.00 L 480.00,160.00 zM 336.00,96.00L 176.00,96.00L 160.00,32.00L 128.00,0.00L 384.00,0.00L 352.00,32.00  z" data-tags="screen, monitor, computer"/>
<glyph unicode="" d="M 512.00,64.00L 512.00,448.00 L0.00,448.00 l0.00-384.00 l 224.00,0.00 l0.00-32.00 l-96.00,0.00 l0.00-32.00 l 256.00,0.00 l0.00,32.00 l-96.00,0.00 l0.00,32.00 L 512.00,64.00 z M 64.00,384.00l 384.00,0.00 l0.00-256.00 L 64.00,128.00 L 64.00,384.00 z" data-tags="screen, monitor, computer"/>
<glyph unicode="" d="M 448.00,128.00L 448.00,384.00 c0.00,17.60-14.40,32.00-32.00,32.00L 96.00,416.00 c-17.60,0.00-32.00-14.40-32.00-32.00l0.00-256.00 L0.00,128.00 l0.00-96.00 l 512.00,0.00 l0.00,96.00 L 448.00,128.00 z M 320.00,64.00L 192.00,64.00 l0.00,32.00 l 128.00,0.00 L 320.00,64.00 z M 416.00,128.00L 96.00,128.00   L 96.00,383.943 c 0.017,0.02, 0.038,0.041, 0.057,0.057l 319.885,0.00 c 0.02-0.017, 0.041-0.038, 0.058-0.058L 416.00,128.00 z" data-tags="laptop, pc, computer"/>
<glyph unicode="" d="M 384.00,480.00L 96.00,480.00 C 78.40,480.00, 64.00,465.601, 64.00,448.00l0.00-448.00 c0.00-17.60, 14.399-32.00, 32.00-32.00l 288.00,0.00 c 17.60,0.00, 32.00,14.40, 32.00,32.00L 416.00,448.00 C 416.00,465.601, 401.60,480.00, 384.00,480.00z   M 240.00-8.891c-13.746,0.00-24.891,11.145-24.891,24.891s 11.145,24.891, 24.891,24.891s 24.891-11.145, 24.891-24.891  S 253.746-8.891, 240.00-8.891z M 384.00,64.00L 96.00,64.00 L 96.00,416.00 l 288.00,0.00 L 384.00,64.00 z" data-tags="mobile, touch, phone, tablet"/>
<glyph unicode="" d="M 416.00,480.00L 96.00,480.00 C 78.40,480.00, 64.00,465.60, 64.00,448.00l0.00-448.00 c0.00-17.60, 14.40-32.00, 32.00-32.00l 320.00,0.00 c 17.60,0.00, 32.00,14.40, 32.00,32.00L 448.00,448.00 C 448.00,465.60, 433.60,480.00, 416.00,480.00z M 256.00-16.00  c-8.837,0.00-16.00,7.163-16.00,16.00s 7.163,16.00, 16.00,16.00s 16.00-7.163, 16.00-16.00S 264.837-16.00, 256.00-16.00z M 384.00,32.00L 128.00,32.00 L 128.00,416.00 l 256.00,0.00 L 384.00,32.00 z" data-tags="tablet"/>
<glyph unicode="" d="M 336.00,480.00c-8.837,0.00-16.00-7.163-16.00-16.00l0.00-48.00 L 144.00,416.00 c-8.836,0.00-16.00-7.163-16.00-16.00l0.00-416.00 c0.00-8.836, 7.164-16.00, 16.00-16.00l 192.00,0.00 c 8.837,0.00, 16.00,7.164, 16.00,16.00L 352.00,464.00   C 352.00,472.837, 344.837,480.00, 336.00,480.00z M 192.00,0.00l-32.00,0.00 l0.00,32.00 l 32.00,0.00 L 192.00,0.00 z M 192.00,64.00l-32.00,0.00 l0.00,32.00 l 32.00,0.00 L 192.00,64.00 z M 192.00,128.00l-32.00,0.00 l0.00,32.00 l 32.00,0.00 L 192.00,128.00 z M 256.00,0.00l-32.00,0.00 l0.00,32.00 l 32.00,0.00 L 256.00,0.00 z   M 256.00,64.00l-32.00,0.00 l0.00,32.00 l 32.00,0.00 L 256.00,64.00 z M 256.00,128.00l-32.00,0.00 l0.00,32.00 l 32.00,0.00 L 256.00,128.00 z M 320.00,0.00l-32.00,0.00 l0.00,32.00 l 32.00,0.00 L 320.00,0.00 z M 320.00,64.00l-32.00,0.00 l0.00,32.00 l 32.00,0.00 L 320.00,64.00 z M 320.00,128.00l-32.00,0.00 l0.00,32.00 l 32.00,0.00 L 320.00,128.00 z   M 320.00,208.00c0.00-8.836-7.163-16.00-16.00-16.00L 176.00,192.00 c-8.836,0.00-16.00,7.164-16.00,16.00L 160.00,368.00 c0.00,8.837, 7.164,16.00, 16.00,16.00l 128.00,0.00 c 8.837,0.00, 16.00-7.163, 16.00-16.00L 320.00,208.00 z" data-tags="mobile, phone, contact"/>
<glyph unicode="" d="M 480.00,288.00l-64.00,0.00 L 496.00,480.00l-16.00,0.00 l-96.00-192.00L 288.00,480.00l-16.00,0.00 l 80.00-192.00L 32.00,288.00 C 14.40,288.00,0.00,273.60,0.00,256.00l0.00-256.00 c0.00-17.60, 14.399-32.00, 32.00-32.00l 448.00,0.00   c 17.60,0.00, 32.00,14.40, 32.00,32.00L 512.00,256.00 C 512.00,273.60, 497.60,288.00, 480.00,288.00z M 352.00,0.00L 32.00,0.00 L 32.00,256.00 l 320.00,0.00 L 352.00,0.00 z M 480.00,0.00l-96.00,0.00 l0.00,32.00 l 96.00,0.00 L 480.00,0.00 z M 480.00,64.00l-96.00,0.00 l0.00,32.00 l 96.00,0.00   L 480.00,64.00 z M 432.00,160.00c-26.511,0.00-48.00,21.49-48.00,48.00s 21.489,48.00, 48.00,48.00c 26.509,0.00, 48.00-21.49, 48.00-48.00S 458.509,160.00, 432.00,160.00z" data-tags="tv, television, show"/>
<glyph unicode="" d="M 490.594,335.946c-44.404,6.384-91.691,11.008-141.038,13.61L 432.00,432.00l-32.00,32.00L 287.721,351.722  C 277.218,351.906, 266.643,352.00, 256.00,352.00l0.00,0.00L 128.00,480.00L 96.00,448.00l 97.098-97.098c-60.461-2.121-118.169-7.262-171.693-14.956  C 7.639,282.083,0.00,222.57,0.00,160.00s 7.639-122.083, 21.402-175.945C 93.223-26.271, 172.572-32.00, 256.00-32.00  c 83.428,0.00, 162.775,5.729, 234.594,16.055C 504.361,37.917, 512.00,97.43, 512.00,160.00S 504.361,282.083, 490.594,335.946z M 431.946,42.703  C 378.081,35.82, 318.571,32.00, 256.00,32.00c-62.571,0.00-122.083,3.82-175.946,10.703C 69.73,78.611, 64.00,118.286, 64.00,160.00  c0.00,41.715, 5.729,81.39, 16.054,117.298C 133.917,284.181, 193.429,288.00, 256.00,288.00c 62.568,0.00, 122.081-3.819, 175.943-10.702  C 442.271,241.39, 448.00,201.715, 448.00,160.00C 448.00,118.286, 442.271,78.611, 431.946,42.703z" data-tags="tv, television, show"/>
<glyph unicode="" d="M 352.00,480.00L 160.00,480.00 L 64.00,416.00l0.00-128.00 l 384.00,0.00 L 448.00,416.00 L 352.00,480.00z M 320.00,320.00l-32.00,0.00 l0.00,21.333 C 288.00,347.20, 283.20,352.00, 277.333,352.00l-42.666,0.00    c-5.866,0.00-10.667-4.80-10.667-10.667L 224.00,320.00 l-32.00,0.00 l0.00,53.333 C 192.00,379.20, 196.801,384.00, 202.667,384.00l 106.665,0.00 c 5.867,0.00, 10.668-4.80, 10.668-10.667   L 320.00,320.00 zM 64.00,127.999l 384.00,0.00 L 448.00,256.00 L 64.00,256.00 L 64.00,127.999 z M 192.00,213.334c0.00,5.867, 4.801,10.666, 10.667,10.666l 106.665,0.00    c 5.867,0.00, 10.668-4.799, 10.668-10.666L 320.00,160.00 l-32.00,0.00 l0.00,21.334 c0.00,5.867-4.80,10.666-10.667,10.666l-42.666,0.00    c-5.866,0.00-10.667-4.799-10.667-10.666L 224.00,160.00 l-32.00,0.00 L 192.00,213.334 zM 64.00-32.00l 384.00,0.00 L 448.00,95.999 L 64.00,95.999 L 64.00-32.00 z M 192.00,53.334c0.00,5.867, 4.801,10.666, 10.667,10.666l 106.665,0.00 c 5.867,0.00, 10.668-4.799, 10.668-10.666   L 320.00,0.00 l-32.00,0.00 l0.00,21.334 c0.00,5.867-4.80,10.666-10.667,10.666l-42.666,0.00 c-5.866,0.00-10.667-4.799-10.667-10.666L 224.00,0.00 l-32.00,0.00 L 192.00,53.334 z" data-tags="cabinet, storage, drawer, archive"/>
<glyph unicode="" d="M 352.00,384.00L 160.00,384.00 L0.00,192.00l0.00-80.00 l0.00-48.00 c0.00-17.673, 14.327-32.00, 32.00-32.00l 448.00,0.00 c 17.674,0.00, 32.00,14.327, 32.00,32.00l0.00,48.00 l0.00,80.00 L 352.00,384.00z M 384.00,192.00l-64.00-64.00L 192.00,128.00   l-64.00,64.00L 41.655,192.00 l 133.333,160.00l 162.024,0.00 l 133.333-160.00L 384.00,192.00 z" data-tags="drawer, inbox, box, archive, storage"/>
<glyph unicode="" d="M 352.00,384.00L 160.00,384.00 L0.00,192.00l0.00-128.00 c0.00-17.673, 14.327-32.00, 32.00-32.00l 448.00,0.00 c 17.674,0.00, 32.00,14.327, 32.00,32.00L 512.00,192.00 L 352.00,384.00z M 320.00,128.00L 192.00,128.00 l-32.00,32.00l 192.00,0.00    L 320.00,128.00z M 41.655,192.00l 133.333,160.00l 162.024,0.00 l 133.333-160.00L 41.655,192.00 zM 142.482,288.00L 369.518,288.00L 342.851,320.00L 169.148,320.00  zM 89.149,224.00L 422.852,224.00L 396.185,256.00L 115.815,256.00  z" data-tags="drawer, category, archive"/>
<glyph unicode="" d="M 32.00,416.00L 480.00,416.00L 480.00,352.00L 32.00,352.00zM 64.00,32.00l 384.00,0.00 L 448.00,320.00 L 64.00,320.00 L 64.00,32.00 z M 192.00,288.00l 128.00,0.00 l0.00-32.00 L 192.00,256.00 L 192.00,288.00 z" data-tags="box, storage, inbox, archive"/>
<glyph unicode="" d="M 416.00,448.00L 96.00,448.00 L0.00,352.00l0.00-336.00 c0.00-8.837, 7.163-16.00, 16.00-16.00l 480.00,0.00 c 8.836,0.00, 16.00,7.163, 16.00,16.00L 512.00,352.00 L 416.00,448.00z M 256.00,64.00L 96.00,192.00l 96.00,0.00 l0.00,96.00 l 128.00,0.00 l0.00-96.00 l 96.00,0.00   L 256.00,64.00z M 77.255,384.00l 32.00,32.00l 293.489,0.00 l 32.00-32.00L 77.255,384.00 z" data-tags="box-add, storage, inbox, archive"/>
<glyph unicode="" d="M 416.00,448.00L 96.00,448.00 L0.00,352.00l0.00-336.00 c0.00-8.837, 7.163-16.00, 16.00-16.00l 480.00,0.00 c 8.836,0.00, 16.00,7.163, 16.00,16.00L 512.00,352.00 L 416.00,448.00z M 320.00,160.00l0.00-96.00 L 192.00,64.00 l0.00,96.00 L 96.00,160.00 l 160.00,128.00  l 160.00-128.00L 320.00,160.00 z M 77.255,384.00l 32.00,32.00l 293.488,0.00 l 32.00-32.00L 77.255,384.00 z" data-tags="box-remove, storage, inbox, archive"/>
<glyph unicode="" d="M 448.00,480.00L0.00,480.00 l0.00-512.00 l 512.00,0.00 L 512.00,416.00 L 448.00,480.00z M 256.00,416.00l 64.00,0.00 l0.00-128.00 l-64.00,0.00 L 256.00,416.00 z M 448.00,32.00L 64.00,32.00 L 64.00,416.00 l 32.00,0.00 l0.00-160.00 l 288.00,0.00 L 384.00,416.00 l 37.489,0.00 L 448.00,389.491L 448.00,32.00 z" data-tags="disk, save, floppy"/>
<glyph unicode="" d="M 96.00,32.00l 320.00,0.00 c 53.019,0.00, 96.00,42.98, 96.00,96.00L0.00,128.00 C0.00,74.98, 42.981,32.00, 96.00,32.00z M 416.00,96.00l 32.00,0.00 l0.00-32.00 l-32.00,0.00 L 416.00,96.00 zM 480.00,416.00L 32.00,416.00L0.00,160.00L 512.00,160.00  z" data-tags="storage, save, hdd, hard disk, drive"/>
<glyph unicode="" d="M 416.00,352.00L 96.00,352.00L0.00,224.00L 512.00,224.00  zM0.00,96.00l 512.00,0.00 l0.00,96.00 L0.00,192.00 L0.00,96.00 z M 448.00,160.00l 32.00,0.00 l0.00-32.00 l-32.00,0.00 L 448.00,160.00 z" data-tags="drive, hdd, hard disk, storage"/>
<glyph unicode="" d="M 256.00,480.00C 114.614,480.00,0.00,444.184,0.00,400.00l0.00-64.00 c0.00-44.183, 114.611-80.00, 256.00-80.00c 141.385,0.00, 256.00,35.817, 256.00,80.00L 512.00,400.00 C 512.00,444.184, 397.385,480.00, 256.00,480.00   zM 255.193,224.00C 140.566,224.00, 43.94,247.543, 11.32,280.00C 3.705,272.423,0.00,264.361,0.00,256.00l0.00-64.00 c0.00-44.184, 114.611-80.00, 256.00-80.00   c 141.385,0.00, 256.00,35.816, 256.00,80.00l0.00,64.00 c0.00,8.361-4.516,16.423-12.131,24.00C 467.25,247.543, 369.82,224.00, 255.193,224.00zM 255.193,80.00C 140.566,80.00, 43.94,103.544, 11.32,136.00C 3.705,128.424,0.00,120.361,0.00,112.00l0.00-64.00 c0.00-44.183, 114.611-80.00, 256.00-80.00   c 141.385,0.00, 256.00,35.817, 256.00,80.00l0.00,64.00 c0.00,8.361-4.516,16.424-12.131,24.00C 467.25,103.544, 369.82,80.00, 255.193,80.00z" data-tags="database, storage, save"/>
<glyph unicode="" d="M 256.00,448.00c-70.692,0.00-134.688-28.66-181.016-74.989L0.00,448.00l0.00-192.00 l 192.00,0.00 l-71.766,71.761C 154.982,362.507, 202.98,384.00, 256.00,384.00  c 106.034,0.00, 192.00-85.962, 192.00-192.00c0.00-57.348-25.146-108.818-65.009-144.00l 42.333-48.00C 478.475,46.908, 512.00,115.538, 512.00,192.00  C 512.00,333.385, 397.385,448.00, 256.00,448.00z" data-tags="undo, arrow, left"/>
<glyph unicode="" d="M0.00,192.00c0.00-76.462, 33.524-145.092, 86.675-192.00l 42.333,48.00C 89.145,83.182, 64.00,134.652, 64.00,192.00c0.00,106.038, 85.965,192.00, 192.00,192.00  c 53.021,0.00, 101.019-21.493, 135.765-56.239L 320.00,256.00l 192.00,0.00 L 512.00,448.00 l-74.985-74.989C 390.688,419.34, 326.693,448.00, 256.00,448.00  C 114.615,448.00,0.00,333.385,0.00,192.00z" data-tags="redo, arrow, right"/>
<glyph unicode="" d="M0.00,288.00L 512.00,288.00L 512.00,480.00   zM 512.00,0.00L 512.00,192.00L0.00,192.00   z" data-tags="flip, mirror, vertical"/>
<glyph unicode="" d="M 288.00,480.00L 288.00-32.00L 480.00-32.00   zM0.00-32.00L 192.00-32.00L 192.00,480.00   z" data-tags="flip, mirror, horizontal"/>
<glyph unicode="" d="M 380.931-32.00C 437.794,71.016, 447.375,228.153, 224.00,222.912L 224.00,96.00 L 32.00,288.00L 224.00,480.00l0.00-124.186   C 491.481,362.785, 521.285,119.707, 380.931-32.00z" data-tags="undo, arrow, left"/>
<glyph unicode="" d="M 288.00,355.814L 288.00,480.00 l 192.00-192.00L 288.00,96.00L 288.00,222.912 C 64.625,228.153, 74.206,71.016, 131.07-32.00  C-9.286,119.707, 20.52,362.785, 288.00,355.814z" data-tags="redo, arrow, right"/>
<glyph unicode="" d="M 131.07,480.00C 74.206,376.984, 64.625,219.848, 288.00,225.088L 288.00,352.00 l 192.00-192.00L 288.00-32.00L 288.00,92.186 C 20.52,85.215-9.286,328.293, 131.07,480.00z" data-tags="forward, arrow, right"/>
<glyph unicode="" d="M 224.00,92.186L 224.00-32.00 L 32.00,160.00l 192.00,192.00l0.00-126.912 C 447.375,219.848, 437.794,376.984, 380.931,480.00  C 521.286,328.293, 491.481,85.215, 224.00,92.186z" data-tags="reply, arrow, left"/>
<glyph unicode="" d="M 429.406,480.00C 486.27,376.984, 511.375,219.848, 288.00,225.088L 288.00,352.00 L 96.00,160.00l 192.00-192.00L 288.00,92.186 C 512.00,92.186, 569.762,328.293, 429.406,480.00   zM 192.00,306.745L 192.00,352.00L0.00,160.00L 192.00-32.00L 192.00,13.255L 45.255,160.00  z" data-tags="reply, replyall"/>
<glyph unicode="" d="M 255.993,471.963C 114.606,471.963, 0.001,385.424, 0.001,278.684c0.00-83.391, 69.951-154.469, 167.963-181.565  c 1.438-8.104, 3.25-19.646, 3.25-26.787c0.00-33.625-12.867-65.518-35.788-94.295c 35.444,14.928, 85.475,62.898, 116.473,109.432  c 1.367-0.016, 2.729-0.084, 4.095-0.084c 141.40,0.00, 256.007,86.539, 256.007,193.299C 512.002,385.424, 397.395,471.963, 255.993,471.963z" data-tags="comments, chat, bubble, message, talk"/>
<glyph unicode="" d="M 512.00,176.00c0.00,31.984-26.282,59.581-64.259,72.383c-3.818-58.182-51.143-108.229-119.261-133.935   c 12.653-7.509, 27.651-13.072, 44.103-16.029c 11.884-27.769, 30.681-54.436, 53.733-71.93c-12.468,24.473-13.195,48.944-8.824,70.484   C 471.038,102.973, 512.00,136.068, 512.00,176.00zM 416.00,256.00c0.00,70.692-85.961,128.00-192.00,128.00C 117.962,384.00, 32.00,326.692, 32.00,256.00c0.00-52.637, 47.664-97.845, 115.781-117.509   c 10.66-26.364, 16.668-61.164-1.062-95.967c 26.945,20.448, 48.081,53.424, 59.146,86.048C 211.837,128.199, 217.883,128.00, 224.00,128.00   C 330.039,128.00, 416.00,185.308, 416.00,256.00z" data-tags="comments, chat, bubble, message, talk"/>
<glyph unicode="" d="M 464.00,480.00L 48.00,480.00 C 21.60,480.00,0.00,458.40,0.00,432.00l0.00-320.00 c0.00-26.40, 21.60-48.00, 48.00-48.00l 112.00,0.00 l 96.00-96.00l 96.00,96.00l 112.00,0.00 c 26.40,0.00, 48.00,21.60, 48.00,48.00L 512.00,432.00   C 512.00,458.40, 490.401,480.00, 464.00,480.00z" data-tags="comments, chat, bubble, message, talk"/>
<glyph unicode="" d="M 464.00,352.00L 176.00,352.00 c-26.40,0.00-48.00-21.60-48.00-48.00l0.00-224.00 c0.00-26.40, 21.60-48.00, 48.00-48.00l 80.00,0.00 l 64.00-64.00l 64.00,64.00l 80.00,0.00 c 26.40,0.00, 48.00,21.60, 48.00,48.00L 512.00,304.00    C 512.00,330.40, 490.401,352.00, 464.00,352.00zM 384.00,432.00c0.00,26.40-21.60,48.00-48.00,48.00L 48.00,480.00 C 21.60,480.00,0.00,458.40,0.00,432.00l0.00-224.00 c0.00-26.40, 21.60-48.00, 48.00-48.00l 16.00,0.00 L 64.00,368.00 c0.00,26.51, 21.49,48.00, 48.00,48.00l 272.00,0.00 L 384.00,432.00 z" data-tags="comments, chat, bubble, message, talk"/>
<glyph unicode="" d="M 352.00,480.00L 160.00,480.00 C 72.00,480.00,0.00,408.00,0.00,320.00l0.00-64.00 c0.00-88.00, 72.00-160.00, 160.00-160.00l 102.40,0.00 L 416.00-32.00L 416.00,109.449 c 56.377,24.812, 96.00,81.274, 96.00,146.551l0.00,64.00   C 512.00,408.00, 440.00,480.00, 352.00,480.00z" data-tags="comments, chat, bubble, message, talk, _new"/>
<glyph unicode="" d="M 352.00,480.00L 160.00,480.00 C 72.00,480.00,0.00,408.00,0.00,320.00l0.00-64.00 c0.00-88.00, 72.00-160.00, 160.00-160.00l 102.40,0.00 L 416.00-32.00L 416.00,109.449 c 56.377,24.812, 96.00,81.274, 96.00,146.551l0.00,64.00    C 512.00,408.00, 440.00,480.00, 352.00,480.00z M 480.00,256.00c0.00-25.213-7.423-49.651-21.467-70.674c-13.741-20.568-32.906-36.678-55.423-46.588l-19.11-8.41   l0.00-20.879 l0.00-73.128 l-101.113,84.262l-8.90,7.417L 262.40,128.00 L 160.00,128.00 c-34.013,0.00-66.108,13.363-90.373,37.627C 45.363,189.892, 32.00,221.986, 32.00,256.00l0.00,64.00    c0.00,34.013, 13.363,66.108, 37.627,90.373C 93.892,434.637, 125.987,448.00, 160.00,448.00l 192.00,0.00 c 34.014,0.00, 66.108-13.363, 90.373-37.627   C 466.637,386.108, 480.00,354.013, 480.00,320.00L 480.00,256.00 zM 92.255,387.745C 74.034,369.525, 64.00,345.466, 64.00,320.00l 32.00,0.00 c0.00,16.918, 6.706,32.941, 18.882,45.118   C 127.059,377.294, 143.082,384.00, 160.00,384.00l 64.00,0.00 L 224.00,416.00 l-64.00,0.00 C 134.534,416.00, 110.475,405.966, 92.255,387.745z" data-tags="comments, chat, bubble, message, talk, _new"/>
<glyph unicode="" d="M 384.00,384.00L 224.00,384.00 c-70.40,0.00-128.00-57.60-128.00-128.00l0.00-64.00 c0.00-70.40, 57.60-128.00, 128.00-128.00l 96.00,0.00 l 96.00-96.00L 416.00,68.077 c 55.048,14.303, 96.00,64.562, 96.00,123.923   l0.00,64.00 C 512.00,326.40, 454.40,384.00, 384.00,384.00zM 176.00,432.00l 160.00,0.00 c 22.942,0.00, 44.522-6.121, 63.195-16.805C 377.096,453.822, 335.458,480.00, 288.00,480.00L 128.00,480.00 C 57.60,480.00,0.00,422.40,0.00,352.00l0.00-64.00    c0.00-47.458, 26.178-89.096, 64.805-111.195C 54.121,195.478, 48.00,217.058, 48.00,240.00l0.00,64.00 C 48.00,374.40, 105.60,432.00, 176.00,432.00z" data-tags="comments, chat, bubble, message, talk, _new"/>
<glyph unicode="" d="M 480.00,416.00L 32.00,416.00 C 14.40,416.00,0.00,401.60,0.00,384.00l0.00-224.00 c0.00-17.60, 14.40-32.00, 32.00-32.00l 64.00,0.00 l0.00-96.00 l 72.00,96.00l 312.00,0.00 c 17.60,0.00, 32.00,14.40, 32.00,32.00L 512.00,384.00   C 512.00,401.60, 497.60,416.00, 480.00,416.00z" data-tags="comments, chat, bubble, message, talk"/>
<glyph unicode="" d="M 480.00,416.00L 32.00,416.00 C 14.40,416.00,0.00,401.60,0.00,384.00l0.00-224.00 c0.00-17.60, 14.40-32.00, 32.00-32.00l 64.00,0.00 l0.00-96.00 l 72.00,96.00l 312.00,0.00 c 17.60,0.00, 32.00,14.40, 32.00,32.00L 512.00,384.00   C 512.00,401.60, 497.60,416.00, 480.00,416.00z M 160.00,224.00L 96.00,224.00 l0.00,64.00 l 64.00,0.00 L 160.00,224.00 z M 288.00,224.00l-64.00,0.00 l0.00,64.00 l 64.00,0.00 L 288.00,224.00 z M 416.00,224.00l-64.00,0.00 l0.00,64.00 l 64.00,0.00 L 416.00,224.00 z" data-tags="comments, chat, bubble, message, talk"/>
<glyph unicode="" d="M 480.00,416.00L 32.00,416.00 C 14.40,416.00,0.00,401.60,0.00,384.00l0.00-224.00 c0.00-17.60, 14.40-32.00, 32.00-32.00l 64.00,0.00 l0.00-96.00 l 72.00,96.00l 312.00,0.00 c 17.60,0.00, 32.00,14.40, 32.00,32.00L 512.00,384.00    C 512.00,401.60, 497.60,416.00, 480.00,416.00z M 480.00,160.00L 152.00,160.00 l-24.00-32.00l0.00,32.00 L 32.00,160.00 L 32.00,384.00 l 448.00,0.00 L 480.00,160.00 zM 256.00,192.00L 288.00,192.00L 288.00,256.00L 352.00,256.00L 352.00,288.00L 288.00,288.00L 288.00,352.00L 256.00,352.00L 256.00,288.00L 192.00,288.00L 192.00,256.00L 256.00,256.00  z" data-tags="comments, chat, bubble, message, talk, add"/>
<glyph unicode="" d="M 480.00,416.00L 32.00,416.00 C 14.40,416.00,0.00,401.60,0.00,384.00l0.00-224.00 c0.00-17.60, 14.40-32.00, 32.00-32.00l 64.00,0.00 l0.00-96.00 l 72.00,96.00l 312.00,0.00 c 17.60,0.00, 32.00,14.40, 32.00,32.00L 512.00,384.00   C 512.00,401.60, 497.60,416.00, 480.00,416.00z M 352.00,256.00l-64.00,0.00 l0.00-64.00 l-32.00,0.00 l0.00,64.00 l-64.00,0.00 l0.00,32.00 l 64.00,0.00 l0.00,64.00 l 32.00,0.00 l0.00-64.00 l 64.00,0.00 L 352.00,256.00 z" data-tags="comments, chat, bubble, message, talk, add"/>
<glyph unicode="" d="M 480.00,416.00L 32.00,416.00 C 14.40,416.00,0.00,401.60,0.00,384.00l0.00-224.00 c0.00-17.60, 14.40-32.00, 32.00-32.00l 64.00,0.00 l0.00-96.00 l 72.00,96.00l 312.00,0.00 c 17.60,0.00, 32.00,14.40, 32.00,32.00L 512.00,384.00    C 512.00,401.60, 497.60,416.00, 480.00,416.00z M 480.00,160.00L 152.00,160.00 l-24.00-32.00l0.00,32.00 L 32.00,160.00 L 32.00,384.00 l 448.00,0.00 L 480.00,160.00 zM 224.00,192.00L 272.00,240.00L 320.00,192.00L 352.00,224.00L 304.00,272.00L 352.00,320.00L 320.00,352.00L 272.00,304.00L 224.00,352.00L 192.00,320.00L 240.00,272.00L 192.00,224.00  z" data-tags="comments, chat, bubble, message, talk, remove"/>
<glyph unicode="" d="M 480.00,416.00L 32.00,416.00 C 14.40,416.00,0.00,401.60,0.00,384.00l0.00-224.00 c0.00-17.60, 14.399-32.00, 32.00-32.00l 64.00,0.00 l0.00-96.00 l 72.00,96.00l 312.00,0.00 c 17.60,0.00, 32.00,14.40, 32.00,32.00L 512.00,384.00   C 512.00,401.60, 497.60,416.00, 480.00,416.00z M 352.00,224.00l-32.00-32.00l-48.00,48.00l-48.00-48.00l-32.00,32.00l 48.00,48.00l-48.00,48.00l 32.00,32.00l 48.00-48.00l 48.00,48.00l 32.00-32.00l-48.00-48.00L 352.00,224.00z" data-tags="comments, chat, bubble, message, talk, remove"/>
<glyph unicode="" d="M 480.00,416.00L 32.00,416.00 C 14.40,416.00,0.00,401.60,0.00,384.00l0.00-224.00 c0.00-17.60, 14.40-32.00, 32.00-32.00l 64.00,0.00 l0.00-96.00 l 72.00,96.00l 312.00,0.00 c 17.60,0.00, 32.00,14.40, 32.00,32.00L 512.00,384.00    C 512.00,401.60, 497.60,416.00, 480.00,416.00z M 480.00,160.00L 152.00,160.00 l-24.00-32.00l0.00,32.00 L 32.00,160.00 L 32.00,384.00 l 448.00,0.00 L 480.00,160.00 zM 96.00,352.00L 416.00,352.00L 416.00,320.00L 96.00,320.00zM 96.00,288.00L 352.00,288.00L 352.00,256.00L 96.00,256.00zM 96.00,224.00L 288.00,224.00L 288.00,192.00L 96.00,192.00z" data-tags="comments, chat, bubble, message, talk"/>
<glyph unicode="" d="M 128.00,224.00l 224.00,0.00 c 17.594,0.00, 32.00,14.406, 32.00,32.00L 384.00,416.00 c0.00,17.594-14.406,32.00-32.00,32.00L 32.00,448.00 C 14.406,448.00,0.00,433.594,0.00,416.00l0.00-160.00    c0.00-17.594, 14.404-32.00, 32.00-32.00l 32.00,0.00 l0.00-64.00 L 128.00,224.00zM 480.00,288.00l-64.00,0.00 l0.00-64.00 c0.00-17.594-14.406-32.00-32.00-32.00L 160.00,192.00 l0.00-96.00 c0.00-17.596, 14.404-32.00, 32.00-32.00l 192.00,0.00 l 64.00-64.00l0.00,64.00 l 32.00,0.00 c 17.594,0.00, 32.00,14.404, 32.00,32.00L 512.00,256.00    C 512.00,273.594, 497.594,288.00, 480.00,288.00z" data-tags="comments, chat, bubble, message, talk"/>
<glyph unicode="" d="M 336.788,149.699c-23.375-17.894-50.901-28.32-80.784-28.32c-29.892,0.00-57.418,10.427-80.797,28.32   C 73.459,128.817,0.00,69.751,0.00,0.00l 512.00,0.00 C 512.00,69.751, 438.54,128.817, 336.788,149.699zM 150.753,304.00A105.247,144.00 6300.00 1,0 361.247,304A105.247,144.00 6300.00 1,0 150.753,304z" data-tags="user, profile, avatar, person, talk"/>
<glyph unicode="" d="M 288.00,158.078l0.00,14.768 c 19.129,16.60, 32.00,47.621, 32.00,83.154c0.00,53.02-28.653,96.00-64.00,96.00c-35.346,0.00-64.00-42.98-64.00-96.00   c0.00-35.535, 12.872-66.558, 32.003-83.156l0.00-14.766 c-73.031-8.895-128.00-47.634-128.00-94.078L 416.00,64.00 C 416.00,110.444, 361.031,149.184, 288.00,158.078zM 160.84,175.194c-13.354,8.158-30.188,13.814-48.839,15.902l0.00,7.341 c 9.562,8.301, 16.00,23.799, 16.00,41.563   c0.00,26.51-14.327,48.00-32.00,48.00s-32.00-21.49-32.00-48.00c0.00-17.764, 6.438-33.262, 16.00-41.563l0.00-7.327 c-45.402-5.079-80.00-31.397-80.00-63.109l 89.713,0.00    C 106.735,147.614, 131.324,163.943, 160.84,175.194zM 432.00,191.11l0.00,7.327 c 9.563,8.301, 16.00,23.799, 16.00,41.563c0.00,26.51-14.327,48.00-32.00,48.00s-32.00-21.49-32.00-48.00   c0.00-17.764, 6.438-33.262, 16.00-41.563l0.00-7.341 c-18.65-2.088-35.485-7.744-48.84-15.902c 29.516-11.251, 54.104-27.58, 71.127-47.193L 512.00,128.001    C 512.00,159.713, 477.403,186.031, 432.00,191.11z" data-tags="users, team"/>
<glyph unicode="" d="M 128.00,320.00A128.00,128.00 6300.00 1,0 384.00,320A128.00,128.00 6300.00 1,0 128.00,320zM 384.00,160.00L 128.00,160.00 C 57.308,160.00,0.00,102.691,0.00,32.00l0.00-32.00 l 4.033,0.00 l 503.934,0.00 L 512.00,0.00 l0.00,32.00 C 512.00,102.691, 454.692,160.00, 384.00,160.00z" data-tags="user, profile, avatar, person, talk"/>
<glyph unicode="" d="M 311.413,128.632c-11.055,1.759-11.307,32.157-11.307,32.157s 32.484,32.158, 39.564,75.401  c 19.045,0.00, 30.809,45.973, 11.761,62.148C 352.226,315.365, 375.911,432.00, 256.00,432.00c-119.911,0.00-96.225-116.635-95.432-133.662  c-19.047-16.175-7.285-62.148, 11.761-62.148c 7.079-43.243, 39.564-75.401, 39.564-75.401s-0.252-30.398-11.307-32.157  C 164.976,122.966, 32.00,64.315, 32.00,0.00l 224.00,0.00 l 224.00,0.00 C 480.00,64.315, 347.024,122.966, 311.413,128.632z" data-tags="user, profile, avatar, person, talk"/>
<glyph unicode="" d="M 160.00,384.00A96.00,96.00 4500.00 1,0 352.00,384A96.00,96.00 4500.00 1,0 160.00,384zM 384.039,256.00l-0.078,0.00 l-17.634,0.00 l-99.552-202.122L 304.00,240.00l-48.00,48.00l-48.00-48.00l 37.225-186.122L 145.674,256.00l-17.635,0.00 l-0.077,0.00    C 64.00,256.00, 64.00,213.007, 64.00,160.00l0.00-160.00 l 384.00,0.00 L 448.00,160.00 C 448.00,213.007, 448.00,256.00, 384.039,256.00z" data-tags="user, job, official, employee"/>
<glyph unicode="" d="M 224.00,320.00L 192.00,32.00L 256.00-32.00L 320.00,32.00L 288.00,320.00  zM 288.00,352.00L 320.00,416.00L 256.00,480.00L 192.00,416.00L 224.00,352.00  z" data-tags="tie"/>
<glyph unicode="" d="M 160.00,352.00A96.00,96.00 6300.00 1,0 352.00,352A96.00,96.00 6300.00 1,0 160.00,352zM 256.00,224.00C 149.961,224.00, 64.00,123.711, 64.00,0.00l 64.00,0.00 c0.00,88.365, 57.307,160.00, 128.00,160.00c 70.691,0.00, 128.00-71.635, 128.00-160.00l 64.00,0.00     C 448.00,123.711, 362.038,224.00, 256.00,224.00z" data-tags="user, profile, avatar, person, talk"/>
<glyph unicode="" d="M 96.00,288.00A64.00,64.00 6300.00 1,0 224.00,288A64.00,64.00 6300.00 1,0 96.00,288zM 288.00,384.00A64.00,64.00 6300.00 1,0 416.00,384A64.00,64.00 6300.00 1,0 288.00,384zM 160.00,192.00C 71.635,192.00,0.00,106.039,0.00,0.00l 48.00,0.00 c0.00,20.471, 3.312,40.247, 9.844,58.779c 6.155,17.461, 14.866,33.023, 25.894,46.257   C 104.677,130.162, 131.76,144.00, 160.00,144.00s 55.324-13.838, 76.263-38.964c 11.027-13.233, 19.739-28.796, 25.894-46.257   C 268.689,40.247, 272.00,20.471, 272.00,0.00l 48.00,0.00 C 320.00,106.039, 248.366,192.00, 160.00,192.00zM 352.00,288.00c-47.088,0.00-89.423-24.413-118.701-63.264c 3.598-1.559, 7.168-3.228, 10.705-5.022   c 10.877-5.521, 21.24-12.047, 31.037-19.535c 0.233,0.285, 0.462,0.575, 0.697,0.857C 296.677,226.162, 323.761,240.00, 352.00,240.00   c 28.24,0.00, 55.324-13.838, 76.263-38.964c 11.027-13.233, 19.739-28.796, 25.894-46.257C 460.689,136.247, 464.00,116.471, 464.00,96.00l 48.00,0.00    C 512.00,202.039, 440.366,288.00, 352.00,288.00z" data-tags="users, team"/>
<glyph unicode="" d="M 448.00,384.00L 64.00,384.00 c-35.20,0.00-64.00-28.80-64.00-64.00l0.00-224.00 c0.00-35.20, 28.80-64.00, 64.00-64.00l 384.00,0.00 c 35.20,0.00, 64.00,28.80, 64.00,64.00L 512.00,320.00 C 512.00,355.20, 483.20,384.00, 448.00,384.00z   M 64.00,96.00c0.00,70.692, 35.817,128.00, 80.00,128.00c-26.51,0.00-48.00,21.49-48.00,48.00s 21.49,48.00, 48.00,48.00s 48.00-21.49, 48.00-48.00s-21.49-48.00-48.00-48.00  c 44.183,0.00, 80.00-57.308, 80.00-128.00L 64.00,96.00 z M 448.00,96.00L 288.00,96.00 l0.00,32.00 l 160.00,0.00 L 448.00,96.00 z M 448.00,192.00L 288.00,192.00 l0.00,32.00 l 160.00,0.00 L 448.00,192.00 z M 448.00,288.00L 288.00,288.00 l0.00,32.00 l 160.00,0.00 L 448.00,288.00 z" data-tags="vcard, card, _new"/>
<glyph unicode="" d="M 319.646,411.51l-0.918,0.00 c-4.836-26.81-31.073-47.30-62.729-47.30c-31.656,0.00-57.894,20.49-62.729,47.30l-0.918,0.00 L0.00,361.583  l 27.329-105.637l 86.188,0.00 L 113.517,0.00 L 256.00,0.00 L 398.48,0.00 L 398.48,255.946 l 86.191,0.00 L 512.00,361.583L 319.646,411.51z" data-tags="tshirt, shirt, team"/>
<glyph unicode="" d="M 453.754,124.20L 256.03,217.935l0.00,72.816 c-5.008-1.776-10.391-2.752-16.00-2.752c-26.467,0.00-48.00,21.533-48.00,48.00s 21.533,48.00, 48.00,48.00  c 26.468,0.00, 48.00-21.533, 48.00-48.00c0.00-5.609-0.976-10.992-2.752-16.00l 33.148,0.00 c 1.05,5.17, 1.604,10.52, 1.604,16.00c0.00,44.183-35.817,80.00-80.00,80.00  c-44.183,0.00-80.00-35.817-80.00-80.00c0.00-38.703, 27.485-70.984, 64.00-78.396l0.00-39.668 l-0.06,0.00 L 26.247,124.20C 4.719,114.057-5.666,86.135, 3.129,61.972  c 6.624-18.204, 22.319-29.97, 39.982-29.97c 0.001,0.00,0.00,0.00, 0.001,0.00l 393.775,0.00 c 0.001,0.00,0.00,0.00, 0.001,0.00c 17.663,0.00, 33.358,11.766, 39.982,29.97  C 485.666,86.135, 475.281,114.057, 453.754,124.20z M 448.90,73.553c-2.11-5.799-6.825-9.548-12.012-9.547L 43.112,64.006   c-5.187-0.001-9.901,3.748-12.012,9.547c-3.023,8.305, 0.32,18.098, 7.302,21.387L 240.00,190.511l 201.599-95.571  C 448.58,91.651, 451.924,81.858, 448.90,73.553z" data-tags="hanger, coat hanger"/>
<glyph unicode="" d="M 0.24,145.083c 2.679-47.049, 39.488-88.803, 91.279-98.567c 60.231-11.338, 110.09,26.223, 120.614,82.178   c 10.537,55.972-22.22,109.096-82.441,120.438c-4.812,0.906-9.542,1.012-14.271,1.328c 0.172,25.458, 72.882,109.237, 120.208,153.047   l-34.006,0.00 C 20.17,311.957-2.764,172.124, 0.24,145.083zM 512.00,403.506l-33.999,0.00 C 296.55,311.956, 273.608,172.124, 276.62,145.083c 2.664-47.049, 39.479-88.803, 91.273-98.567   c 60.233-11.338, 110.072,26.223, 120.613,82.178c 10.541,55.972-22.227,109.096-82.45,120.438c-4.798,0.906-9.528,1.012-14.271,1.328   C 391.968,275.918, 464.682,359.696, 512.00,403.506z" data-tags="quote, left"/>
<glyph unicode="" d="M 511.76,302.919c-2.665,47.049-39.484,88.805-91.275,98.566c-60.233,11.338-110.089-26.221-120.615-82.176   c-10.532-55.97, 22.22-109.093, 82.445-120.438c 4.802-0.908, 9.535-1.013, 14.274-1.329c-0.176-25.463-72.893-109.236-120.214-153.049   l 34.006,0.00 C 491.829,136.047, 514.767,275.88, 511.76,302.919zM0.00,44.494l 34.006,0.00 C 215.452,136.047, 238.395,275.88, 235.381,302.92c-2.662,47.049-39.48,88.806-91.271,98.565   C 83.871,412.823, 34.029,375.267, 23.495,319.312c-10.542-55.97, 22.218-109.094, 82.446-120.438c 4.798-0.908, 9.529-1.014, 14.274-1.329   C 120.04,172.081, 47.323,88.308,0.00,44.494z" data-tags="quote, right"/>
<glyph unicode="" d="M 364.496,224.00C 433.373,267.667, 480.00,351.604, 480.00,448.00c0.00,10.838-0.596,21.517-1.739,32.00L 33.74,480.00 C 32.595,469.516, 32.00,458.837, 32.00,448.00   c0.00-96.396, 46.627-180.333, 115.503-224.00C 78.627,180.333, 32.00,96.396, 32.00,0.00c0.00-10.838, 0.595-21.517, 1.739-32.00l 444.521,0.00    c 1.144,10.483, 1.739,21.162, 1.739,32.00C 480.00,96.396, 433.373,180.333, 364.496,224.00z M 80.00,0.00c0.00,93.456, 40.081,172.707, 112.00,198.854   l0.00,50.293 l0.00,0.00 C 120.081,275.292, 80.00,354.543, 80.00,448.00l0.00,0.00 l 352.00,0.00 l0.00,0.00 c0.00-93.457-40.081-172.708-112.00-198.853l0.00-50.293    C 391.919,172.707, 432.00,93.456, 432.00,0.00L 80.00,0.00 zM 309.813,145.203c-35.827,20.322-37.804,46.684-37.813,62.683L 272.00,240.00 c0.00,15.997, 1.902,42.457, 37.872,62.832   c 19.252,11.182, 35.904,28.174, 48.524,49.168L 153.605,352.00 c 12.633-21.016, 29.306-38.021, 48.583-49.203   c 35.827-20.322, 37.803-46.683, 37.813-62.683L 240.001,208.00 c0.00-15.996-1.902-42.457-37.872-62.832c-36.311-21.09-63.369-62.842-71.545-113.168   l 250.835,0.00 C 373.237,82.354, 346.154,124.124, 309.813,145.203z" data-tags="busy, wait, loading, hour glass"/>
<glyph unicode="" d="M 346.828,165.62C 309.427,189.964, 288.00,203.621, 288.00,224.00c0.00,20.378, 21.427,34.036, 58.826,58.379  C 407.055,320.221, 448.00,394.524, 448.00,480.00L 64.00,480.00 c0.00-85.476, 40.945-159.779, 101.174-197.621C 202.573,258.036, 224.00,244.378, 224.00,224.00  c0.00-20.379-21.427-34.036-58.829-58.38C 104.944,127.777, 64.00,53.475, 64.00-32.00l 384.00,0.00 C 448.00,53.475, 407.057,127.777, 346.828,165.62z   M 129.815,383.09c-8.776,16.792-15.155,35.11-18.968,54.244l 290.306,0.00 c-3.813-19.134-10.191-37.452-18.969-54.244  c-5.893-11.276-12.767-21.694-20.466-31.09L 150.281,352.00 C 142.582,361.396, 135.708,371.814, 129.815,383.09z M 248.00,97.19  c0.00-21.78-88.00-54.523-88.00-86.523l-49.153,0.00 c 3.813,19.133, 10.191,37.45, 18.967,54.242c 14.308,27.376, 34.383,49.709, 58.057,64.583  l 0.289,0.182l 0.286,0.187l 1.544,1.005c 23.355,15.199, 44.029,28.661, 58.01,44.766L 248.00,97.19 z M 401.154,10.667L 352.00,10.667   c0.00,32.00-88.00,64.743-88.00,86.523l0.00,78.44 c 13.98-16.104, 34.654-29.566, 58.01-44.766l 1.544-1.005l 0.286-0.187l 0.289-0.182  c 23.674-14.874, 43.749-37.207, 58.057-64.583C 390.962,48.117, 397.341,29.80, 401.154,10.667z" data-tags="busy, wait, loading, hour glass"/>
<glyph unicode="" d="M 352.00,384.00L 128.00,384.00L 224.001,288.00L 224.001,160.00L 128.00,64.00L 352.00,64.00L 256.00,160.00L 256.00,288.00  zM 480.00,402.745L 480.00,480.00 L0.00,480.00 l0.00-77.255 l 160.00-160.00l0.00-37.489 l-160.00-160.00L0.00-32.00 l 480.00,0.00 l0.00,77.256 l-160.00,160.00l0.00,37.489 L 480.00,402.745z M 448.00,32.00L 32.00,32.00 l 160.00,160.00l0.00,64.00    L 32.00,416.00l 416.00,0.00 L 288.00,256.00l0.00-64.00 L 448.00,32.00z" data-tags="busy, wait, loading, hour glass"/>
<glyph unicode="" d="M 190.04,174.977c-47.689-25.929-82.896-79.105-91.826-142.978l 315.57,0.00 c-8.929,63.871-44.137,117.049-91.824,142.978   C 288.007,199.117, 288.00,210.676, 288.00,224.00s 0.007,24.882, 33.959,49.023c 47.688,25.928, 82.896,79.105, 91.825,142.977L 98.214,416.00    c 8.93-63.871, 44.138-117.049, 91.826-142.977C 223.992,248.882, 224.00,237.324, 224.00,224.00S 223.992,199.117, 190.04,174.977zM 64.00-0.001L 448.00-0.001L 448.00-32.00L 64.00-32.00zM 64.00,480.00L 448.00,480.00L 448.00,448.00L 64.00,448.00z" data-tags="busy, wait, loading, hour glass"/>
<glyph unicode="" d="M 192.00,416.00A64.00,64.00 6300.00 1,0 320.00,416A64.00,64.00 6300.00 1,0 192.00,416zM 327.765,359.765A64.00,64.00 6300.00 1,0 455.765,359.765A64.00,64.00 6300.00 1,0 327.765,359.765zM 416.00,224.00A32.00,32.00 6300.00 1,0 480.00,224A32.00,32.00 6300.00 1,0 416.00,224zM 359.765,88.235A32.00,32.00 6300.00 1,0 423.765,88.23500000000001A32.00,32.00 6300.00 1,0 359.765,88.23500000000001zM 224.001,32.00A32.00,32.00 6300.00 1,0 288.001,32A32.00,32.00 6300.00 1,0 224.001,32zM 88.236,88.235A32.00,32.00 6300.00 1,0 152.236,88.23500000000001A32.00,32.00 6300.00 1,0 88.236,88.23500000000001zM 72.236,359.765A48.00,48.00 6300.00 1,0 168.236,359.765A48.00,48.00 6300.00 1,0 72.236,359.765zM 28.00,224.00A36.00,36.00 6300.00 1,0 100.00,224A36.00,36.00 6300.00 1,0 28.00,224z" data-tags="loading, busy, wait, wheel"/>
<glyph unicode="" d="M 512.00,224.00c-0.639,33.431-7.892,66.758-21.288,97.231c-13.352,30.50-32.731,58.129-56.521,80.96  c-23.776,22.848-51.972,40.91-82.492,52.826C 321.197,466.979, 288.401,472.693, 256.00,472.00c-32.405-0.641-64.666-7.687-94.167-20.678  c-29.524-12.948-56.271-31.735-78.367-54.788c-22.112-23.041-39.58-50.354-51.093-79.899C 20.816,287.104, 15.309,255.375, 16.00,224.00  c 0.643-31.38, 7.482-62.574, 20.067-91.103c 12.544-28.55, 30.738-54.414, 53.055-75.774c 22.305-21.377, 48.736-38.252, 77.307-49.36  C 194.988-3.389, 225.652-8.688, 256.00-8.00c 30.354,0.645, 60.481,7.277, 88.038,19.457c 27.575,12.141, 52.558,29.74, 73.183,51.322  c 20.641,21.57, 36.922,47.118, 47.627,74.715c 6.517,16.729, 10.94,34.20, 13.271,51.899c 0.623-0.036, 1.249-0.06, 1.881-0.06  c 17.673,0.00, 32.00,14.326, 32.00,32.00c0.00,0.898-0.047,1.786-0.119,2.666L 512.00,223.999 z M 461.153,139.026c-11.736-26.601-28.742-50.70-49.589-70.59  c-20.835-19.905-45.50-35.593-72.122-45.895C 312.828,12.202, 284.297,7.315, 256.00,8.00c-28.302,0.649-56.298,6.868-81.91,18.237  c-25.625,11.333-48.842,27.745-67.997,47.856c-19.169,20.099-34.264,43.882-44.161,69.529C 51.997,169.264, 47.318,196.729, 48.00,224.00  c 0.651,27.276, 6.664,54.206, 17.627,78.845c 10.929,24.65, 26.749,46.985, 46.123,65.405c 19.365,18.434, 42.265,32.935, 66.937,42.428  C 203.356,420.208, 229.755,424.681, 256.00,424.00c 26.25-0.653, 52.114-6.459, 75.781-17.017c 23.676-10.525, 45.128-25.751, 62.812-44.391  c 17.698-18.629, 31.605-40.647, 40.695-64.344C 444.412,274.552, 448.679,249.219, 448.00,224.00l 0.119,0.00 c-0.072-0.88-0.119-1.768-0.119-2.666  c0.00-16.506, 12.496-30.087, 28.543-31.812C 473.431,172.111, 468.278,155.113, 461.153,139.026z" data-tags="loading, busy, wait, wheel"/>
<glyph unicode="" d="M 96.00,224.00c0.00,6.09, 0.352,12.098, 1.015,18.011l-92.49,30.052C 1.567,256.493,0.00,240.431,0.00,224.00    c0.00-73.615, 31.083-139.961, 80.827-186.662l 57.142,78.648C 111.907,144.449, 96.00,182.365, 96.00,224.00zM 416.00,224.00c0.00-41.634-15.906-79.551-41.969-108.014l 57.142-78.648C 480.917,84.039, 512.00,150.385, 512.00,224.00    c0.00,16.431-1.566,32.493-4.524,48.063l-92.49-30.052C 415.648,236.097, 416.00,230.09, 416.00,224.00zM 288.00,380.796c 45.967-9.331, 84.772-38.371, 107.225-77.913l 92.489,30.051C 451.116,410.644, 376.594,466.964, 288.00,478.012L 288.00,380.796 zM 116.775,302.884c 22.453,39.542, 61.258,68.582, 107.225,77.913L 224.00,478.012 C 135.406,466.964, 60.885,410.644, 24.287,332.935    L 116.775,302.884zM 322.278,78.336C 302.083,69.132, 279.642,64.00, 256.00,64.00s-46.083,5.132-66.277,14.335l-57.146-78.655    C 169.18-20.503, 211.245-32.00, 256.00-32.00s 86.82,11.497, 123.424,31.68L 322.278,78.336z" data-tags="loading, busy, wait, wheel"/>
<glyph unicode="" d="M 117.417,304.011C 145.084,351.827, 196.783,384.00, 256.00,384.00s 110.916-32.173, 138.583-79.989l 83.149,48.007   C 433.466,428.524, 350.747,480.00, 256.00,480.00S 78.533,428.524, 34.267,352.018L 117.417,304.011z" data-tags="loading, busy, wait, wheel"/>
<glyph unicode="" d="M 192.00,416.00A64.00,64.00 6300.00 1,0 320.00,416A64.00,64.00 6300.00 1,0 192.00,416zM 395.497,224.00A52.503,52.503 6300.00 1,0 500.503,224A52.503,52.503 6300.00 1,0 395.497,224zM 344.212,88.235A47.553,47.553 6300.00 1,0 439.318,88.23500000000001A47.553,47.553 6300.00 1,0 344.212,88.23500000000001zM 212.931,32.00A43.069,43.069 6300.00 1,0 299.069,32A43.069,43.069 6300.00 1,0 212.931,32zM 81.227,88.235A39.009,39.009 6300.00 1,0 159.245,88.23500000000001A39.009,39.009 6300.00 1,0 81.227,88.23500000000001zM 28.669,224.00A35.331,35.331 6300.00 1,0 99.331,224A35.331,35.331 6300.00 1,0 28.669,224zM 88.236,359.764A32.00,32.00 6300.00 1,0 152.236,359.764A32.00,32.00 6300.00 1,0 88.236,359.764zM 449.732,359.764c0.00-32.012-25.953-57.967-57.968-57.967c-32.012,0.00-57.968,25.955-57.968,57.967  c0.00,32.016, 25.956,57.967, 57.968,57.967C 423.779,417.731, 449.732,391.78, 449.732,359.764z" data-tags="loading, busy, wait, wheel"/>
<glyph unicode="" d="M 206.018,376.026l-36.812,88.872c-7.562-2.725-14.956-5.799-22.168-9.197l 36.809-88.864   C 190.948,370.432, 198.356,373.509, 206.018,376.026zM 151.669,345.302L 83.666,413.305c-5.917-5.39-11.581-11.054-16.971-16.971l 68.002-68.002   C 139.924,334.402, 145.598,340.076, 151.669,345.302zM 96.00,224.00c0.00,4.037, 0.153,8.038, 0.447,12.00L 0.289,236.00 C 0.105,232.022,0.00,228.023,0.00,224.00s 0.105-8.021, 0.289-12.00l 96.158,0.00    C 96.154,215.962, 96.00,219.963, 96.00,224.00zM 113.163,296.154L 24.30,332.962c-3.398-7.212-6.472-14.606-9.197-22.168l 88.872-36.812   C 106.491,281.645, 109.569,289.052, 113.163,296.154zM 377.302,328.332l 68.003,68.002c-5.39,5.917-11.054,11.581-16.971,16.971l-68.003-68.002   C 366.403,340.076, 372.076,334.402, 377.302,328.332zM 408.027,273.983l 88.872,36.812c-2.726,7.562-5.80,14.955-9.197,22.167l-88.864-36.809   C 402.432,289.052, 405.509,281.645, 408.027,273.983zM 256.00,384.00c 4.037,0.00, 8.038-0.153, 12.00-0.447L 268.00,479.711 C 264.022,479.895, 260.024,480.00, 256.00,480.00s-8.022-0.105-12.00-0.289l0.00-96.158    C 247.962,383.847, 251.963,384.00, 256.00,384.00zM 328.154,366.837l 36.809,88.863c-7.212,3.398-14.605,6.473-22.168,9.198l-36.812-88.872   C 313.645,373.509, 321.052,370.432, 328.154,366.837zM 256.00,64.00c-4.037,0.00-8.038,0.153-12.00,0.447l0.00-96.159 c 3.978-0.184, 7.977-0.288, 12.00-0.288s 8.021,0.104, 12.00,0.288l0.00,96.159    C 264.038,64.153, 260.037,64.00, 256.00,64.00zM 398.837,151.847l 88.864-36.809c 3.397,7.212, 6.472,14.605, 9.197,22.168l-88.872,36.812   C 405.509,166.355, 402.432,158.948, 398.837,151.847zM 103.974,174.018l-88.872-36.812c 2.725-7.563, 5.80-14.956, 9.198-22.168l 88.863,36.809   C 109.568,158.948, 106.491,166.355, 103.974,174.018zM 511.712,236.00l-96.159,0.00 c 0.294-3.962, 0.447-7.963, 0.447-12.00s-0.153-8.038-0.447-12.00l 96.159,0.00 c 0.184,3.979, 0.288,7.977, 0.288,12.00   S 511.896,232.022, 511.712,236.00zM 360.331,102.698l 68.003-68.003c 5.917,5.39, 11.581,11.054, 16.971,16.971l-68.003,68.003   C 372.076,113.598, 366.403,107.924, 360.331,102.698zM 134.698,119.669l-68.002-68.003c 5.39-5.917, 11.054-11.581, 16.971-16.971l 68.002,68.003   C 145.598,107.924, 139.925,113.598, 134.698,119.669zM 183.846,81.163l-36.809-88.864c 7.212-3.397, 14.606-6.472, 22.167-9.197l 36.812,88.872   C 198.356,74.491, 190.948,77.568, 183.846,81.163zM 305.983,71.974l 36.812-88.872c 7.563,2.726, 14.956,5.80, 22.168,9.197l-36.809,88.864   C 321.052,77.568, 313.645,74.491, 305.983,71.974z" data-tags="loading, busy, wait, wheel"/>
<glyph unicode="" d="M 208.00,16.00A48.00,48.00 6300.00 1,0 304.00,16A48.00,48.00 6300.00 1,0 208.00,16zM0.00,224.00A48.00,48.00 6300.00 1,0 96.00,224A48.00,48.00 6300.00 1,0 0.00,224zM 416.00,224.00A48.00,48.00 6300.00 1,0 512.00,224A48.00,48.00 6300.00 1,0 416.00,224zM 60.922,371.078A48.00,48.00 6300.00 1,0 156.922,371.078A48.00,48.00 6300.00 1,0 60.922,371.078zM 355.078,76.922A48.00,48.00 6300.00 1,0 451.078,76.92200000000003A48.00,48.00 6300.00 1,0 355.078,76.92200000000003zM 60.922,76.922A48.00,48.00 6300.00 1,0 156.922,76.92200000000003A48.00,48.00 6300.00 1,0 60.922,76.92200000000003zM 355.078,371.078A48.00,48.00 6300.00 1,0 451.078,371.078A48.00,48.00 6300.00 1,0 355.078,371.078z" data-tags="loading, busy, wait, wheel"/>
<glyph unicode="" d="M 319.106,405.375C 319.684,408.832, 320.00,412.378, 320.00,416.00c0.00,35.346-28.653,64.00-64.00,64.00c-35.346,0.00-64.00-28.654-64.00-64.00   c0.00-3.622, 0.316-7.168, 0.895-10.625C 117.859,379.27, 64.00,307.93, 64.00,224.00c0.00-106.039, 85.961-192.00, 192.00-192.00c 106.039,0.00, 192.00,85.961, 192.00,192.00   C 448.00,307.93, 394.142,379.27, 319.106,405.375z M 256.00,64.00c-88.366,0.00-160.00,71.635-160.00,160.00c0.00,70.915, 46.139,131.043, 110.032,152.031   C 217.761,361.388, 235.78,352.00, 256.00,352.00s 38.239,9.388, 49.968,24.031C 369.861,355.043, 416.00,294.915, 416.00,224.00   C 416.00,135.635, 344.365,64.00, 256.00,64.00z" data-tags="loading, busy, wait, wheel"/>
<glyph unicode="" d="M 512.00,288.00L 512.00,480.00 l-74.985-74.985C 390.689,451.342, 326.694,480.00, 256.00,480.00C 114.615,480.00,0.00,365.385,0.00,224.00s 114.615-256.00, 256.00-256.00  c 70.692,0.00, 134.692,28.654, 181.02,74.98l-45.255,45.255C 357.02,53.49, 309.02,32.00, 256.00,32.00c-106.039,0.00-192.00,85.961-192.00,192.00  c0.00,106.039, 85.961,192.00, 192.00,192.00c 53.02,0.00, 101.004-21.506, 135.748-56.252L 320.00,288.00L 512.00,288.00 z" data-tags="refresh, reload, loop, loading"/>
<glyph unicode="" d="M 256.00,16.00c-25.943,0.00-50.785,4.788-73.707,13.504C 168.378,12.846, 160.00-8.598, 160.00-32.00l 192.00,0.00    c0.00,23.402-8.378,44.846-22.293,61.504C 306.785,20.788, 281.944,16.00, 256.00,16.00zM 320.00,192.00l0.00-64.00 l 43.328,0.00 c-1.777-1.981-3.608-3.927-5.505-5.823C 330.626,94.979, 294.464,80.00, 256.00,80.00   s-74.625,14.979-101.823,42.177C 126.979,149.374, 112.00,185.536, 112.00,224.00c0.00,36.326, 14.35,71.562, 38.771,98.194l 117.583-91.453   l 39.293,50.519L 52.122,480.00l0.00,0.00L0.00,439.46l 112.794-87.729C 83.033,317.896, 64.00,272.573, 64.00,224.00c0.00-106.039, 85.961-192.00, 192.00-192.00   c 71.066,0.00, 133.109,38.612, 166.308,96.00L 512.00,128.00 l0.00,64.00 L 320.00,192.00 z" data-tags="microscope"/>
<glyph unicode="" d="M 480.00,256.00L 448.00,256.00L 416.00,416.00L 376.00,416.00L 384.00,480.00L 288.00,480.00L 296.00,416.00L 216.00,416.00L 224.00,480.00L 128.00,480.00L 136.00,416.00L 96.00,416.00L 64.00,256.00L 32.00,256.00L0.00,0.00L0.00-32.00L 192.00-32.00L 192.00,256.00L 224.00,256.00L 224.00,288.00L 288.00,288.00L 288.00,256.00L 320.00,256.00L 320.00-32.00L 512.00-32.00L 512.00,0.00 z" data-tags="binocular, search, find"/>
<glyph unicode="" d="M 440.698,8.064L 313.486,194.95c-3.336,4.914-10.234,6.433-15.325,3.379l-16.069-9.668   c-5.087-3.05-6.992-9.845-4.229-15.111l 105.281-200.064c 2.763-5.252, 9.177-7.056, 14.271-3.99l 40.101,24.093   C 442.608-3.356, 444.033,3.149, 440.698,8.064zM 296.322,213.939c 48.104,30.646, 50.188,110.532, 4.747,181.875c-38.64,60.653-97.389,92.75-143.688,82.201   c-10.647-2.086-24.247-7.761-37.93-16.475c-13.683-8.721-24.604-18.643-30.979-27.432C 59.346,396.604, 63.617,329.806, 102.25,269.17   c 45.45-71.346, 118.727-103.23, 166.844-72.58l 27.22,17.346L 296.322,213.939z M 278.977,241.169   c-31.746-20.215-87.728,8.487-122.253,62.704c-34.536,54.196-36.891,117.063-5.14,137.293c 31.722,20.217, 87.719-8.50, 122.243-62.708   C 308.357,324.269, 310.704,261.392, 278.977,241.169z" data-tags="search, magnifier, look up"/>
<glyph unicode="" d="M 449.077,10.754l-114.54,168.305c 65.459,51.835, 83.963,145.677, 39.835,219.126   C 326.445,477.959, 222.559,503.857, 142.793,455.94C 63.028,408.007, 37.131,304.124, 85.054,224.357   c 43.213-71.942, 131.962-100.047, 207.479-69.717l 95.143-180.783c 2.95-5.611, 9.802-7.523, 15.229-4.273l 42.784,25.72   C 451.126-1.433, 452.653,5.518, 449.077,10.754z M 288.781,212.968c-54.211-32.563-124.808-14.959-157.375,39.253   c-32.565,54.197-14.952,124.794, 39.253,157.36c 54.189,32.57, 124.787,14.961, 157.351-39.245   C 360.579,316.138, 342.978,245.525, 288.781,212.968z" data-tags="search, magnifier, look up"/>
<glyph unicode="" d="M 192.00,384.00L 160.00,384.00L 160.00,320.00L 96.00,320.00L 96.00,288.00L 160.00,288.00L 160.00,224.00L 192.00,224.00L 192.00,288.00L 256.00,288.00L 256.00,320.00L 192.00,320.00  zM 318.771,201.076C 339.674,230.021, 352.00,265.568, 352.00,304.00C 352.00,401.202, 273.202,480.00, 176.00,480.00S0.00,401.202,0.00,304.00s 78.798-176.00, 176.00-176.00   c 38.432,0.00, 73.979,12.326, 102.924,33.229L 448.00-32.00l 64.00,64.00L 318.771,201.076z M 176.00,176.00c-70.692,0.00-128.00,57.308-128.00,128.00S 105.308,432.00, 176.00,432.00   s 128.00-57.308, 128.00-128.00S 246.693,176.00, 176.00,176.00z" data-tags="zoom in, enlarge, scale"/>
<glyph unicode="" d="M 96.00,320.00L 256.00,320.00L 256.00,288.00L 96.00,288.00zM 318.771,201.076C 339.674,230.021, 352.00,265.568, 352.00,304.00C 352.00,401.202, 273.202,480.00, 176.00,480.00S0.00,401.202,0.00,304.00s 78.798-176.00, 176.00-176.00   c 38.432,0.00, 73.979,12.326, 102.924,33.229L 448.00-32.00l 64.00,64.00L 318.771,201.076z M 176.00,176.00c-70.692,0.00-128.00,57.308-128.00,128.00S 105.308,432.00, 176.00,432.00   s 128.00-57.308, 128.00-128.00S 246.693,176.00, 176.00,176.00z" data-tags="zoom out, smaller, scale, reduce"/>
<glyph unicode="" d="M 496.131,44.302L 374.855,147.449c-12.537,11.283-25.945,16.463-36.776,15.963C 366.707,196.946, 384.00,240.451, 384.00,288.00  C 384.00,394.039, 298.039,480.00, 192.00,480.00C 85.962,480.00,0.00,394.039,0.00,288.00c0.00-106.039, 85.961-192.00, 192.00-192.00c 47.549,0.00, 91.054,17.293, 124.588,45.922  c-0.50-10.831, 4.68-24.239, 15.963-36.776l 103.147-121.276c 17.661-19.623, 46.511-21.277, 64.11-3.678S 515.754,26.641, 496.131,44.302z   M 192.00,160.00c-70.692,0.00-128.00,57.308-128.00,128.00S 121.308,416.00, 192.00,416.00s 128.00-57.308, 128.00-128.00S 262.693,160.00, 192.00,160.00z" data-tags="search, magnifier, lookup, find"/>
<glyph unicode="" d="M 496.131,44.302L 374.855,147.449c-12.537,11.283-25.945,16.463-36.776,15.963C 366.707,196.945, 384.00,240.451, 384.00,288.00  C 384.00,394.039, 298.039,480.00, 192.00,480.00C 85.962,480.00,0.00,394.039,0.00,288.00s 85.961-192.00, 192.00-192.00c 47.549,0.00, 91.055,17.293, 124.588,45.922  c-0.50-10.831, 4.68-24.238, 15.963-36.775L 435.698-16.13c 17.661-19.623, 46.511-21.277, 64.109-3.678  C 517.407-2.209, 515.754,26.641, 496.131,44.302z M 287.261,188.00L 96.74,188.00 c-2.694,2.56-5.281,5.232-7.762,8.00l 206.044,0.00   C 292.541,193.232, 289.955,190.56, 287.261,188.00z M 151.544,156.00c-7.014,2.141-13.79,4.824-20.281,8.00l 121.475,0.00   c-6.491-3.176-13.267-5.859-20.281-8.00L 151.544,156.00 z M 117.089,172.00c-3.851,2.484-7.567,5.156-11.142,8.00l 172.106,0.00   c-3.575-2.844-7.292-5.516-11.143-8.00L 117.089,172.00 z M 82.332,204.00c-1.997,2.596-3.903,5.264-5.715,8.00l 230.766,0.00   c-1.812-2.736-3.718-5.404-5.715-8.00L 82.332,204.00 z M 71.701,220.00c-1.486,2.615-2.894,5.281-4.21,8.00l 249.018,0.00 c-1.316-2.719-2.724-5.385-4.21-8.00  L 71.701,220.00 z M 63.936,236.00c-1.071,2.628-2.071,5.294-2.981,8.00l 262.09,0.00 c-0.911-2.706-1.91-5.372-2.982-8.00L 63.936,236.00 z M 58.539,252.00  c-0.712,2.637-1.355,5.303-1.912,8.00l 270.746,0.00 c-0.557-2.697-1.20-5.363-1.911-8.00L 58.539,252.00 z M 53.778,288.00c0.00,1.338, 0.024,2.671, 0.062,4.00  l 276.319,0.00 c 0.038-1.329, 0.062-2.662, 0.062-4.00s-0.023-2.671-0.062-4.00L 53.84,284.00 C 53.802,285.329, 53.778,286.662, 53.778,288.00z M 96.74,388.00l 190.52,0.00   c 2.694-2.56, 5.28-5.232, 7.762-8.00L 88.979,380.00 C 91.459,382.768, 94.045,385.44, 96.74,388.00z M 232.456,420.00c 7.014-2.141, 13.79-4.824, 20.281-8.00L 131.263,412.00   c 6.491,3.176, 13.267,5.859, 20.281,8.00L 232.456,420.00 z M 266.91,404.00c 3.851-2.484, 7.567-5.157, 11.143-8.00L 105.947,396.00   c 3.575,2.843, 7.292,5.516, 11.143,8.00L 266.91,404.00 z M 301.667,372.00c 1.997-2.596, 3.903-5.263, 5.715-8.00L 76.617,364.00 c 1.812,2.737, 3.718,5.404, 5.715,8.00  L 301.667,372.00 z M 312.298,356.00c 1.486-2.616, 2.894-5.282, 4.21-8.00L 67.491,348.00 c 1.316,2.718, 2.724,5.384, 4.21,8.00L 312.298,356.00 z M 320.062,340.00  c 1.072-2.628, 2.07-5.294, 2.981-8.00L 60.955,332.00 c 0.911,2.706, 1.91,5.372, 2.981,8.00L 320.062,340.00 z M 325.46,324.00c 0.712-2.637, 1.355-5.303, 1.912-8.00  L 56.626,316.00 c 0.557,2.697, 1.20,5.363, 1.912,8.00L 325.46,324.00 z M 328.771,308.00c 0.385-2.643, 0.692-5.311, 0.925-8.00L 54.304,300.00   c 0.232,2.689, 0.54,5.357, 0.924,8.00L 328.771,308.00 z M 329.695,276.00c-0.232-2.689-0.54-5.357-0.925-8.00L 55.228,268.00 c-0.384,2.643-0.692,5.311-0.924,8.00  L 329.695,276.00 z" data-tags="search, magnifier, _new"/>
<glyph unicode="" d="M 496.131,44.302L 374.855,147.449c-12.537,11.283-25.945,16.463-36.776,15.963C 366.707,196.946, 384.00,240.451, 384.00,288.00   C 384.00,394.039, 298.039,480.00, 192.00,480.00C 85.962,480.00,0.00,394.039,0.00,288.00c0.00-106.039, 85.961-192.00, 192.00-192.00c 47.549,0.00, 91.054,17.293, 124.588,45.922   c-0.50-10.831, 4.68-24.239, 15.963-36.776l 103.147-121.276c 17.661-19.623, 46.511-21.277, 64.11-3.678S 515.754,26.641, 496.131,44.302   z M 192.00,160.00c-70.692,0.00-128.00,57.308-128.00,128.00S 121.308,416.00, 192.00,416.00s 128.00-57.308, 128.00-128.00S 262.693,160.00, 192.00,160.00zM 224.00,384.00L 160.00,384.00L 160.00,320.00L 96.00,320.00L 96.00,256.00L 160.00,256.00L 160.00,192.00L 224.00,192.00L 224.00,256.00L 288.00,256.00L 288.00,320.00L 224.00,320.00  z" data-tags="zoom in, enlarge, scale"/>
<glyph unicode="" d="M 496.131,44.302L 374.855,147.449c-12.537,11.283-25.945,16.463-36.776,15.963C 366.707,196.946, 384.00,240.451, 384.00,288.00   C 384.00,394.039, 298.039,480.00, 192.00,480.00C 85.962,480.00,0.00,394.039,0.00,288.00c0.00-106.039, 85.961-192.00, 192.00-192.00c 47.549,0.00, 91.054,17.293, 124.588,45.922   c-0.50-10.831, 4.68-24.239, 15.963-36.776l 103.147-121.276c 17.661-19.623, 46.511-21.277, 64.11-3.678S 515.754,26.641, 496.131,44.302   z M 192.00,160.00c-70.692,0.00-128.00,57.308-128.00,128.00S 121.308,416.00, 192.00,416.00s 128.00-57.308, 128.00-128.00S 262.693,160.00, 192.00,160.00zM 96.00,320.00L 288.00,320.00L 288.00,256.00L 96.00,256.00z" data-tags="zoom out, smaller, scale, reduce"/>
<glyph unicode="" d="M 152.856,480.00c 88.366,0.00 160.00-71.635 160.00-160.00c0.00-32.62, -9.771-62.954, -26.532-88.251c 0.005,0.007 0.01,0.015 0.015,0.022   l 35.18-35.18c 17.435,9.611 33.846,11.409 42.22,3.035L 499.503,63.862c 12.497-12.497 2.366-42.889, -22.627-67.883   c -24.994-24.994, -55.386-35.124, -67.882-22.627l -135.764,135.765c -8.374,8.373, -6.575,24.784 3.034,42.22l -35.178,35.179   c 0.021,0.015 0.043,0.029 0.064,0.044C 215.843,169.781, 185.494,160.00, 152.856,160.00c -88.366,0.00, -160.00,71.635, -160.00,160.00S 64.49,480.00, 152.856,480.00z    M 62.346,229.49C 86.522,205.314, 118.666,192.00, 152.856,192.00s 66.334,13.314 90.51,37.49C 267.542,253.667, 280.856,285.81, 280.856,320.00   s -13.314,66.333, -37.49,90.51C 219.19,434.686, 187.046,448.00, 152.856,448.00s -66.334-13.314, -90.51-37.49C 38.17,386.333, 24.856,354.19, 24.856,320.00   S 38.17,253.667, 62.346,229.49zM 248.856,320.00c0.00-14.397, -3.175-28.051, -8.854-40.309c -7.261,66.992, -60.462,120.193, -127.454,127.455   C 124.805,412.825, 138.459,416.00, 152.856,416.00C 205.876,416.00, 248.856,373.02, 248.856,320.00z" data-tags="search, magnifier, _new"/>
<glyph unicode="" d="M 230.627,294.627L 150.628,374.627L 192.00,416.00L0.00,480.00L 64.00,288.00L 105.373,329.373L 185.373,249.373 zM 326.626,249.373L 406.627,329.372L 447.999,288.00L 512.00,480.00L 320.00,416.00L 361.372,374.627L 281.372,294.627 zM 281.372,153.373L 361.372,73.372L 320.00,32.00L 512.00-32.00L 448.00,160.00L 406.627,118.627L 326.627,198.627 zM 185.374,198.627L 105.373,118.627L 64.001,160.00L0.00-32.00L 192.00,32.00L 150.628,73.373L 230.628,153.373 z" data-tags="expand, enlarge, maximize, full screen"/>
<glyph unicode="" d="M0.00,288.00L 192.00,480.00L0.00,480.00  zM 320.00,480.00L 512.00,288.00L 512.00,480.00  zM 512.00-32.00L 512.00,160.00L 320.00-32.00  zM0.00-32.00L 192.00-32.00L0.00,160.00  z" data-tags="expand, enlarge, maximize, full screen"/>
<glyph unicode="" d="M 176.00,208.00L 80.00,112.00L0.00,192.00L0.00-32.00L 224.00-32.00L 144.00,48.00L 240.00,144.00  zM 288.00,480.00L 368.00,400.00L 272.00,304.00L 336.00,240.00L 432.00,336.00L 512.00,256.00L 512.00,480.00  z" data-tags="expand, enlarge, maximize, full screen"/>
<glyph unicode="" d="M 480.00,64.00L 384.00,64.00L 384.00,32.00L 512.00,32.00L 512.00,160.00L 480.00,160.00  zM 384.00,416.00L 384.00,384.00L 480.00,384.00L 480.00,288.00L 512.00,288.00L 512.00,416.00  zM 32.00,160.00L0.00,160.00L0.00,32.00L 128.00,32.00L 128.00,64.00L 32.00,64.00  zM 32.00,384.00L 128.00,384.00L 128.00,416.00L0.00,416.00L0.00,288.00L 32.00,288.00  zM 64.00,112.00l 384.00,0.00 L 448.00,336.00 L 64.00,336.00 L 64.00,112.00 z M 80.00,320.00l 352.00,0.00 l0.00-12.00 L 80.00,308.00 L 80.00,320.00 z M 80.00,300.00l 352.00,0.00 l0.00-24.00 L 80.00,276.00 L 80.00,300.00 z M 80.00,268.00l 352.00,0.00 l0.00-24.00 L 80.00,244.00 L 80.00,268.00 z M 80.00,236.00l 352.00,0.00 l0.00-20.00 L 80.00,216.00 L 80.00,236.00 z    M 80.00,200.00l 352.00,0.00 l0.00-16.00 L 80.00,184.00 L 80.00,200.00 z M 80.00,168.00l 352.00,0.00 l0.00-16.00 L 80.00,152.00 L 80.00,168.00 z M 80.00,136.00l 352.00,0.00 l0.00-8.00 L 80.00,128.00 L 80.00,136.00 z" data-tags="expand, full-screen, maximize, _new"/>
<glyph unicode="" d="M0.00,416.00l0.00-384.00 l 512.00,0.00 L 512.00,416.00 L0.00,416.00 z M 480.00,224.00l0.00-160.00 L 256.00,64.00 L 32.00,64.00 L 32.00,224.00 L 32.00,384.00 l 224.00,0.00 l 224.00,0.00 L 480.00,224.00 zM 224.00,320.00L 224.00,256.00L 288.00,256.00L 288.00,320.00L 336.00,320.00L 256.00,384.00L 176.00,320.00  zM 288.00,128.00L 288.00,192.00L 224.00,192.00L 224.00,128.00L 176.00,128.00L 256.00,64.00L 336.00,128.00  zM 96.00,192.00L 160.00,192.00L 160.00,256.00L 96.00,256.00L 96.00,304.00L 32.00,224.00L 96.00,144.00  zM 416.00,256.00L 352.00,256.00L 352.00,192.00L 416.00,192.00L 416.00,144.00L 480.00,224.00L 416.00,304.00  z" data-tags="full screen, expand, enlarge, maximize, _new"/>
<glyph unicode="" d="M 38.627,313.373L 230.627,249.373L 166.627,441.373L 125.255,400.00L 45.255,480.00L0.00,434.746L 80.00,354.745  zM 432.00,354.746L 512.00,434.746L 466.746,480.00L 386.745,400.00L 345.373,441.373L 281.372,249.373L 473.372,313.373  zM 473.372,134.627L 281.372,198.627L 345.372,6.627L 386.745,48.00L 466.745-32.00L 512.00,13.254L 432.00,93.255  zM 80.00,93.254L0.00,13.254L 45.254-32.00L 125.255,48.00L 166.627,6.627L 230.628,198.627L 38.628,134.627  z" data-tags="contract, minimize, zoom out, shrink, collapse"/>
<glyph unicode="" d="M 192.00,288.00L 192.00,480.00L0.00,288.00  zM 320.00,480.00L 320.00,288.00L 512.00,288.00  zM 320.00-32.00L 512.00,160.00L 320.00,160.00  zM 192.00-32.00L 192.00,160.00L0.00,160.00  z" data-tags="contract, minimize, zoom out, shrink, collapse"/>
<glyph unicode="" d="M 80.00,112.00L0.00,32.00L 64.00-32.00L 144.00,48.00L 224.00-32.00L 224.00,192.00L0.00,192.00  zM 512.00,416.00L 448.00,480.00L 368.00,400.00L 288.00,480.00L 288.00,256.00L 512.00,256.00L 432.00,336.00  z" data-tags="contract, minimize, zoom out, shrink, collapse"/>
<glyph unicode="" d="M 128.00,144.00l 256.00,0.00 L 384.00,304.00 L 128.00,304.00 L 128.00,144.00 z M 138.667,288.00l 234.667,0.00 l0.00-12.00 L 138.667,276.00 L 138.667,288.00 z M 138.667,268.00l 234.667,0.00 l0.00-24.00 L 138.667,244.00 L 138.667,268.00 z M 138.667,236.00   l 234.667,0.00 l0.00-20.00 L 138.667,216.00 L 138.667,236.00 z M 138.667,200.00l 234.667,0.00 l0.00-16.00 L 138.667,184.00 L 138.667,200.00 z M 138.667,168.00l 234.667,0.00 l0.00-8.00 L 138.667,160.00 L 138.667,168.00 zM 416.00,32.00L 448.00,32.00L 448.00,96.00L 512.00,96.00L 512.00,128.00L 416.00,128.00  zM0.00,96.00L 64.00,96.00L 64.00,32.00L 96.00,32.00L 96.00,128.00L0.00,128.00  zM 448.00,352.00L 448.00,416.00L 416.00,416.00L 416.00,320.00L 512.00,320.00L 512.00,352.00  zM 64.00,352.00L0.00,352.00L0.00,320.00L 96.00,320.00L 96.00,416.00L 64.00,416.00  z" data-tags="contract, minimize, zoom out, shrink, collapse, _new"/>
<glyph unicode="" d="M 352.00,480.00c-88.365,0.00-160.00-71.634-160.00-160.00c0.00-10.013, 0.929-19.808, 2.688-29.312L0.00,96.00l0.00-96.00 c0.00-17.673, 14.327-32.00, 32.00-32.00  l 32.00,0.00 l0.00,32.00 l 64.00,0.00 l0.00,64.00 l 64.00,0.00 l0.00,64.00 l 64.00,0.00 l 41.521,41.521C 314.526,163.363, 332.869,160.00, 352.00,160.00c 88.365,0.00, 160.00,71.634, 160.00,160.00S 440.365,480.00, 352.00,480.00z   M 399.937,319.937c-26.51,0.00-48.00,21.49-48.00,48.00s 21.49,48.00, 48.00,48.00s 48.00-21.49, 48.00-48.00S 426.447,319.937, 399.937,319.937z" data-tags="key, lock, password, login"/>
<glyph unicode="" d="M 501.066,322.879l-50.553,50.552c-12.396,12.397-32.685,32.684-45.081,45.082l-50.553,50.552  c-12.396,12.397-34.477,14.583-49.065,4.858L 167.595,381.777c-14.588-9.726-20.109-30.514-12.268-46.195l 35.243-70.487  c 1.077-2.153, 2.323-4.448, 3.695-6.83L 16.00,80.00L0.00-32.00l 96.00,0.00 l0.00,32.00 l 64.00,0.00 l0.00,64.00 l 64.00,0.00 l0.00,64.00l 64.00,0.00 l0.00,35.593 c 3.198-1.906, 6.267-3.608, 9.096-5.022  l 70.485-35.244c 15.683-7.841, 36.47-2.319, 46.195,12.269l 92.147,138.22C 515.65,288.402, 513.462,310.481, 501.066,322.879z   M 75.314,52.687l-22.627,22.627l 155.786,155.785l 22.627-22.627L 75.314,52.687z M 458.51,268.118l-22.628-22.628  c-6.223-6.222-16.404-6.222-22.627,0.00L 277.49,381.255c-6.223,6.222-6.223,16.405,0.00,22.627l 22.628,22.628  c 6.223,6.222, 16.404,6.222, 22.627,0.00L 458.51,290.745C 464.733,284.523, 464.733,274.34, 458.51,268.118z" data-tags="key, lock, password, login"/>
<glyph unicode="" d="M 336.00,480.00c-79.529,0.00-144.00-64.471-144.00-144.00c0.00-31.598, 10.186-60.813, 27.441-84.558L 4.667,36.668  c-6.223-6.224-6.223-16.406,0.00-22.629l 9.372-9.372c 6.223-6.223, 16.406-6.223, 22.628,0.00L 96.00,64.00l 32.00-32.00l-27.333-27.332  c-6.223-6.224-6.223-16.406,0.00-22.629l 9.372-9.372c 6.223-6.223, 16.406-6.223, 22.628,0.00l 86.666,86.665  c 6.222,6.224, 6.222,16.406,0.00,22.629l-9.372,9.372c-6.223,6.223-16.406,6.223-22.628,0.00L 160.00,64.00l-32.00,32.00l 123.441,123.441  C 275.187,202.185, 304.401,192.00, 336.00,192.00c 79.529,0.00, 144.00,64.471, 144.00,144.00S 415.529,480.00, 336.00,480.00z M 336.00,229.60c-58.763,0.00-106.40,47.637-106.40,106.40  S 277.237,442.40, 336.00,442.40S 442.40,394.763, 442.40,336.00S 394.763,229.60, 336.00,229.60z" data-tags="key, lock, login, password"/>
<glyph unicode="" d="M 384.00,352.00C 384.00,422.692, 326.693,480.00, 256.00,480.00S 128.00,422.692, 128.00,352.00c0.00-48.913, 27.439-91.411, 67.76-112.958L 128.00-32.00l 256.00,0.00 l-67.76,271.042  C 356.561,260.589, 384.00,303.088, 384.00,352.00z" data-tags="keyhole, login, password, secure, security"/>
<glyph unicode="" d="M 304.00,256.00l-16.00,0.00 l0.00,64.00 c0.00,70.692-57.308,128.00-128.00,128.00S 32.00,390.692, 32.00,320.00l0.00-64.00 L 16.00,256.00 c-8.80,0.00-16.00-7.20-16.00-16.00l0.00-224.00 c0.00-8.80, 7.20-16.00, 16.00-16.00l 288.00,0.00   c 8.80,0.00, 16.00,7.20, 16.00,16.00L 320.00,240.00 C 320.00,248.80, 312.80,256.00, 304.00,256.00z M 186.465,135.959L 192.00,64.00l-64.00,0.00 l 5.535,71.959  C 120.561,144.551, 112.00,159.272, 112.00,176.00c0.00,26.51, 21.49,48.00, 48.00,48.00s 48.00-21.49, 48.00-48.00C 208.00,159.272, 199.439,144.551, 186.465,135.959z M 64.00,256.00  l0.00,64.00 c0.00,53.02, 42.98,96.00, 96.00,96.00s 96.00-42.98, 96.00-96.00l0.00-64.00 L 64.00,256.00 z" data-tags="locked, password, login, secure, security"/>
<glyph unicode="" d="M 384.00,448.00c-70.692,0.00-128.00-57.308-128.00-128.00l0.00-64.00 L 16.00,256.00 c-8.80,0.00-16.00-7.20-16.00-16.00l0.00-224.00 c0.00-8.80, 7.20-16.00, 16.00-16.00l 288.00,0.00 c 8.80,0.00, 16.00,7.20, 16.00,16.00L 320.00,240.00   c0.00,8.80-7.20,16.00-16.00,16.00l-16.00,0.00 l0.00,64.00 c0.00,53.02, 42.98,96.00, 96.00,96.00s 96.00-42.98, 96.00-96.00l0.00-64.00 l 32.00,0.00 l0.00,64.00 C 512.00,390.692, 454.693,448.00, 384.00,448.00z M 186.465,135.959  L 192.00,64.00l-64.00,0.00 l 5.535,71.959C 120.561,144.551, 112.00,159.272, 112.00,176.00c0.00,26.51, 21.49,48.00, 48.00,48.00s 48.00-21.49, 48.00-48.00  C 208.00,159.272, 199.439,144.551, 186.465,135.959z" data-tags="unlocked, login"/>
<glyph unicode="" d="M 448.00,256.00l-32.00,0.00 l0.00,96.00 C 416.00,422.691, 344.365,480.00, 256.00,480.00C 167.634,480.00, 96.00,422.691, 96.00,352.00l0.00-96.00 L 64.00,256.00 c-17.602,0.00-32.00-14.40-32.00-32.00l0.00-224.00   c0.00-17.60, 14.398-32.00, 32.00-32.00l 384.00,0.00 c 17.60,0.00, 32.00,14.40, 32.00,32.00L 480.00,224.00 C 480.00,241.60, 465.60,256.00, 448.00,256.00z M 160.00,352.00c0.00,19.368, 14.312,33.709, 22.843,40.534  c 8.732,6.985, 19.587,12.79, 31.391,16.784C 227.339,413.752, 241.391,416.00, 256.00,416.00c 14.607,0.00, 28.66-2.248, 41.766-6.682  c 11.804-3.994, 22.658-9.799, 31.391-16.784C 337.689,385.709, 352.00,371.368, 352.00,352.00l0.00-96.00 L 160.00,256.00 L 160.00,352.00 z" data-tags="locked, password, login, secure, security"/>
<glyph unicode="" d="M 448.00,288.00l-32.00,0.00 L 416.00,448.00 c0.00,17.60-14.40,32.00-32.00,32.00L 128.00,480.00 C 110.40,480.00, 96.00,465.60, 96.00,448.00l0.00-160.00 L 64.00,288.00 c-17.602,0.00-32.00-14.40-32.00-32.00l0.00-256.00   c0.00-17.60, 14.398-32.00, 32.00-32.00l 384.00,0.00 c 17.60,0.00, 32.00,14.40, 32.00,32.00L 480.00,256.00 C 480.00,273.60, 465.60,288.00, 448.00,288.00z M 288.00,32.00l-64.00,0.00 l 7.496,89.953  c-12.484,8.055-20.752,22.084-20.752,38.047c0.00,24.993, 20.262,45.255, 45.256,45.255c 24.993,0.00, 45.255-20.262, 45.255-45.255  c0.00-15.962-8.268-29.99-20.751-38.046L 288.00,32.00z M 352.00,288.00L 160.00,288.00 L 160.00,416.00 l 192.00,0.00 L 352.00,288.00 z" data-tags="locked, password, login, secure, security"/>
<glyph unicode="" d="M 501.467,71.062l-230.276,197.38C 281.915,288.591, 288.00,311.583, 288.00,336.00C 288.00,415.529, 223.529,480.00, 144.00,480.00  c-14.547,0.00-28.586-2.166-41.823-6.177l 83.195-83.195c 12.445-12.445, 12.445-32.81,0.00-45.255l-50.745-50.745  c-12.445-12.445-32.81-12.445-45.255,0.00L 6.177,377.823C 2.166,364.586,0.00,350.547,0.00,336.00c0.00-79.529, 64.471-144.00, 144.00-144.00  c 24.417,0.00, 47.409,6.085, 67.558,16.81l 197.38-230.276c 11.454-13.362, 31.008-14.113, 43.452-1.669l 50.746,50.746  C 515.58,40.055, 514.829,59.608, 501.467,71.062z" data-tags="wrench, settings, control, tool, options"/>
<glyph unicode="" d="M 507.882,411.883L 448.00,352.00l-64.00,64.00l 59.882,59.883C 435.057,478.557, 425.698,480.00, 416.00,480.00c-53.021,0.00-96.00-42.98-96.00-96.00  c0.00-9.697, 1.442-19.057, 4.116-27.882L 123.882,155.883C 115.057,158.557, 105.698,160.00, 96.00,160.00c-53.021,0.00-96.00-42.98-96.00-96.00  c0.00-9.697, 1.442-19.058, 4.117-27.882L 64.00,96.00l 64.00-64.00l-59.883-59.882C 76.943-30.556, 86.302-32.00, 96.00-32.00c 53.02,0.00, 96.00,42.981, 96.00,96.00  c0.00,9.698-1.444,19.059-4.118,27.883l 200.234,200.235C 396.943,289.444, 406.302,288.00, 416.00,288.00c 53.02,0.00, 96.00,42.981, 96.00,96.00  C 512.00,393.698, 510.556,403.058, 507.882,411.883z" data-tags="wrench, settings, control, tool, options"/>
<glyph unicode="" d="M 144.00,320.00L 80.00,320.00 c-8.80,0.00-16.00-7.20-16.00-16.00l0.00-32.00 c0.00-8.80, 7.20-16.00, 16.00-16.00l 64.00,0.00 c 8.80,0.00, 16.00,7.20, 16.00,16.00l0.00,32.00 C 160.00,312.80, 152.80,320.00, 144.00,320.00zM 96.00,416.00L 128.00,416.00L 128.00,336.00L 96.00,336.00zM 96.00,240.00L 128.00,240.00L 128.00,32.00L 96.00,32.00zM 272.00,192.00l-64.00,0.00 c-8.80,0.00-16.00-7.20-16.00-16.00l0.00-32.00 c0.00-8.80, 7.20-16.00, 16.00-16.00l 64.00,0.00 c 8.801,0.00, 16.00,7.20, 16.00,16.00l0.00,32.00 C 288.00,184.80, 280.801,192.00, 272.00,192.00zM 224.001,416.00L 256.001,416.00L 256.001,208.00L 224.001,208.00zM 224.001,112.00L 256.001,112.00L 256.001,32.00L 224.001,32.00zM 400.00,288.00l-64.00,0.00 c-8.799,0.00-16.00-7.20-16.00-16.00l0.00-32.00 c0.00-8.80, 7.201-16.00, 16.00-16.00l 64.00,0.00 c 8.801,0.00, 16.00,7.20, 16.00,16.00l0.00,32.00 C 416.00,280.80, 408.801,288.00, 400.00,288.00zM 352.00,416.00L 384.00,416.00L 384.00,304.00L 352.00,304.00zM 352.00,208.00L 384.00,208.00L 384.00,32.00L 352.00,32.00zM 440.00,480.00L 40.00,480.00 C 17.944,480.00,0.00,462.056,0.00,440.00l0.00-432.00 c0.00-22.056, 17.944-40.00, 40.00-40.00l 400.00,0.00 c 22.056,0.00, 40.00,17.944, 40.00,40.00L 480.00,440.00    C 480.00,462.056, 462.056,480.00, 440.00,480.00z M 448.00,8.00c0.00-4.40-3.60-8.00-8.00-8.00L 40.00,0.00 c-4.40,0.00-8.00,3.60-8.00,8.00L 32.00,440.00 c0.00,4.40, 3.60,8.00, 8.00,8.00l 400.00,0.00 c 4.40,0.00, 8.00-3.60, 8.00-8.00L 448.00,8.00 z" data-tags="equalizer, control, options, settings, dashboard"/>
<glyph unicode="" d="M 480.00,448.00L 32.00,448.00 C 14.40,448.00,0.00,433.60,0.00,416.00l0.00-384.00 c0.00-17.601, 14.397-32.00, 32.00-32.00l 448.00,0.00 c 17.60,0.00, 32.00,14.399, 32.00,32.00L 512.00,416.00 C 512.00,433.60, 497.60,448.00, 480.00,448.00z    M 480.00,32.057c-0.02-0.02-0.037-0.041-0.061-0.057L 32.057,32.00 c-0.019,0.017-0.04,0.038-0.056,0.057L 32.001,415.943    c 0.017,0.019, 0.038,0.039, 0.057,0.057l 447.885,0.00 c 0.021-0.018, 0.041-0.038, 0.06-0.057L 480.00,32.057L 480.00,32.057zM 216.00,128.00l-24.00,0.00 L 192.00,384.00 l-64.00,0.00 l0.00-256.00 l-24.00,0.00 c-4.40,0.00-8.00-3.60-8.00-8.00l0.00-48.00 c0.00-4.40, 3.60-8.00, 8.00-8.00l 112.00,0.00 c 4.40,0.00, 8.00,3.60, 8.00,8.00l0.00,48.00 C 224.00,124.40, 220.40,128.00, 216.00,128.00zM 296.00,320.00l 24.00,0.00 l0.00-256.00 l 64.00,0.00 L 384.00,320.00 l 24.00,0.00 c 4.40,0.00, 8.00,3.60, 8.00,8.00l0.00,48.00 c0.00,4.40-3.60,8.00-8.00,8.00L 296.00,384.00 c-4.399,0.00-8.00-3.60-8.00-8.00l0.00-48.00 C 288.00,323.60, 291.601,320.00, 296.00,320.00z   " data-tags="equalizer, control, options, settings, dashboard"/>
<glyph unicode="" d="M 509.686,188.971C 511.198,200.418, 512.00,212.117, 512.00,224.00c0.00,11.872-0.805,23.573-2.314,35.025l-39.658,3.298  c-3.561,20.636-9.883,40.292-18.672,58.534l 30.166,26.33c-11.00,20.738-24.67,39.771-40.566,56.653l-33.999-21.022  c-14.518,14.256-30.963,26.478-48.941,36.203l 9.172,39.336C 346.702,468.419, 324.698,475.783, 301.615,480.00l-15.357-37.328  c-9.889,1.405-19.982,2.178-30.257,2.178c-10.276,0.00-20.374-0.771-30.264-2.178L 210.383,480.00c-23.078-4.217-45.082-11.581-65.571-21.643  l 9.171-39.336c-17.976-9.734-34.425-21.947-48.938-36.203l-34.00,21.023c-15.897-16.883-29.568-35.914-40.565-56.653l 30.161-26.33  c-8.772-18.242-15.104-37.898-18.666-58.534l-39.657-3.299C 0.80,247.573,0.00,235.872,0.00,224.00c0.00-11.884, 0.801-23.582, 2.317-35.029  l 39.656-3.303c 3.563-20.632, 9.894-40.296, 18.671-58.539l-30.166-26.328c 10.997-20.73, 24.668-39.769, 40.565-56.647l 34.002,21.026  c 14.519-14.265, 30.964-26.494, 48.938-36.208l-9.168-39.351c 20.483-10.055, 42.487-17.41, 65.565-21.621l 15.36,37.322  c 9.885-1.42, 19.98-2.181, 30.258-2.181c 10.278,0.00, 20.37,0.761, 30.271,2.181L 301.615-32.00c 23.087,4.211, 45.087,11.565, 65.573,21.621  l-9.164,39.351c 17.969,9.729, 34.414,21.943, 48.938,36.208l 33.995-21.026c 15.895,16.881, 29.564,35.917, 40.566,56.647l-30.166,26.338  c 8.789,18.241, 15.109,37.897, 18.672,58.529L 509.686,188.971z M 256.00,148.687c-40.933,0.00-74.119,33.722-74.119,75.313  c0.00,41.594, 33.188,75.305, 74.119,75.305c 40.936,0.00, 74.116-33.711, 74.116-75.305C 330.115,182.409, 296.936,148.687, 256.00,148.687z" data-tags="cog, settings, gear, generate, control, options"/>
<glyph unicode="" d="M 466.895,174.875c-26.863,46.527-10.708,106.152, 36.076,133.244l-50.313,87.146c-14.375-8.427-31.088-13.259-48.923-13.259  c-53.768,0.00-97.354,43.873-97.354,97.995L 205.752,480.001 c 0.133-16.705-4.037-33.641-12.979-49.126  c-26.862-46.528-86.578-62.351-133.431-35.379L 9.03,308.35c 14.485-8.236, 27.025-20.294, 35.943-35.739  c 26.819-46.454, 10.756-105.96-35.854-133.112l 50.313-87.146c 14.325,8.348, 30.958,13.127, 48.70,13.127  c 53.598,0.00, 97.072-43.596, 97.35-97.479l 100.627,0.00 c-0.043,16.537, 4.136,33.285, 12.983,48.609  c 26.818,46.453, 86.388,62.297, 133.207,35.506l 50.313,87.145C 488.222,147.494, 475.766,159.51, 466.895,174.875z M 256.00,120.334  c-57.254,0.00-103.668,46.412-103.668,103.667c0.00,57.254, 46.413,103.667, 103.668,103.667c 57.254,0.00, 103.666-46.413, 103.666-103.667  C 359.665,166.746, 313.254,120.334, 256.00,120.334z" data-tags="cog, settings, gear, generate, control, options"/>
<glyph unicode="" d="M 181.861,118.974l 20.649,28.908l-22.627,22.628l-28.909-20.648c-5.361,2.997-11.102,5.387-17.133,7.096L 128.00,192.00L 96.00,192.00    l-5.84-35.043c-6.031-1.709-11.772-4.099-17.133-7.096L 44.118,170.51L 21.49,147.882l 20.649-28.908   c-2.997-5.36-5.387-11.103-7.096-17.133L0.00,96.00l0.00-32.00 l 35.043-5.841c 1.709-6.03, 4.099-11.772, 7.096-17.133L 21.49,12.118l 22.627-22.628   l 28.909,20.648c 5.361-2.997, 11.102-5.387, 17.133-7.096L 96.00-32.00l 32.00,0.00 l 5.84,35.043c 6.031,1.709, 11.772,4.099, 17.133,7.096l 28.909-20.648   l 22.627,22.628l-20.649,28.908c 2.997,5.36, 5.387,11.103, 7.096,17.133L 224.00,64.00l0.00,32.00 l-35.043,5.841   C 187.248,107.871, 184.858,113.613, 181.861,118.974z M 112.00,48.00c-17.674,0.00-32.00,14.327-32.00,32.00s 14.326,32.00, 32.00,32.00s 32.00-14.327, 32.00-32.00   S 129.674,48.00, 112.00,48.00zM 512.00,288.00l0.00,32.00 l-33.691,6.125c-0.621,4.023-1.416,7.989-2.362,11.895l 28.779,18.55L 492.48,386.134l-33.472-7.234   c-2.107,3.455-4.363,6.81-6.746,10.065l 19.503,28.171l-22.628,22.627l-28.171-19.503c-3.256,2.383-6.61,4.638-10.065,6.747   l 7.234,33.472L 388.571,472.726l-18.55-28.779c-3.906,0.946-7.872,1.741-11.895,2.362L 352.00,480.00l-32.00,0.00 l-6.126-33.691   c-4.023-0.621-7.988-1.416-11.895-2.362L 283.43,472.726L 253.866,460.48l 7.234-33.472c-3.455-2.108-6.81-4.364-10.065-6.747   l-28.171,19.503l-22.627-22.627l 19.503-28.171c-2.383-3.255-4.639-6.61-6.747-10.065l-33.472,7.234l-12.246-29.564l 28.779-18.55   c-0.946-3.906-1.741-7.871-2.362-11.895L 160.00,320.00l0.00-32.00 l 33.691-6.125c 0.621-4.023, 1.416-7.989, 2.362-11.895l-28.779-18.55   l 12.246-29.564l 33.472,7.234c 2.108-3.455, 4.364-6.809, 6.747-10.065l-19.503-28.171l 22.627-22.628l 28.171,19.503   c 3.255-2.383, 6.61-4.638, 10.065-6.746l-7.234-33.472l 29.564-12.246l 18.551,28.779c 3.905-0.946, 7.871-1.741, 11.894-2.362L 320.00,128.00l 32.00,0.00    l 6.126,33.691c 4.022,0.621, 7.988,1.416, 11.895,2.362l 18.55-28.779l 29.564,12.246l-7.234,33.472   c 3.455,2.108, 6.81,4.363, 10.065,6.746l 28.171-19.503l 22.628,22.628l-19.503,28.171c 2.383,3.256, 4.638,6.61, 6.746,10.065   l 33.472-7.234l 12.246,29.565l-28.779,18.55c 0.946,3.906, 1.741,7.871, 2.362,11.895L 512.00,288.00z M 336.00,234.40   c-38.439,0.00-69.60,31.161-69.60,69.60c0.00,38.439, 31.16,69.60, 69.60,69.60s 69.60-31.161, 69.60-69.60C 405.60,265.561, 374.44,234.40, 336.00,234.40z" data-tags="cogs, settings, gears, generate, control, options"/>
<glyph unicode="" d="M 480.00,32.00L 480.00,320.00L 352.00,224.00L 352.00,320.00L 224.00,224.00L 224.00,352.00L 96.00,256.00L 96.00,448.00L 32.00,448.00L 32.00,32.00L0.00,32.00L0.00,0.00L 512.00,0.00L 512.00,32.00 z" data-tags="factory, make, generate, produce, production"/>
<glyph unicode="" d="M 499.483,76.77l-211.33,200.009c 32.213,32.712, 64.673,65.683, 71.878,72.889c 13.922,13.909, 32.279,20.021, 32.279,20.021  l 22.701,32.104l-8.606,8.594l-8.596,8.62l-32.117-22.713c0.00,0.00-6.111-18.357-20.021-32.266c-7.235-7.237-40.464-39.948-73.313-72.305  l-21.269,20.131c 16.727,33.953, 10.755,76.478-17.825,105.07c-24.70,24.665-59.762,32.521-90.746,23.418l 69.836-72.979l-57.428-57.426  l-72.99,69.836c-9.092-30.961-1.259-66.071, 23.429-90.758c 28.593-28.571, 71.106-34.555, 105.049-17.791l 19.854-20.98  c-12.684-12.511-22.656-22.369-27.178-26.894c-9.348,8.456-20.69,19.825-32.324,12.915c-9.937-45.733-50.924-46.198-50.924-46.198  S 22.869,93.083, 5.99,76.218c-16.877-16.88, 6.573-46.223, 13.298-52.936c 6.725-6.736, 36.066-30.179, 52.945-13.298  c 16.866,16.865, 113.852,113.853, 113.852,113.853s 0.462,40.976, 46.199,50.924c 6.908,11.632-4.459,22.968-12.917,32.321  c 4.47,4.47, 14.148,14.261, 26.449,26.731l 199.679-210.994c 13.909-15.317, 36.355-16.80, 49.852-3.316l 7.428,7.429  C 516.281,40.449, 514.768,62.885, 499.483,76.77z M 196.956,186.924L 48.609,38.578c-3.478-3.479-9.402-3.153-13.286,0.727  c-3.881,3.882-4.203,9.811-0.737,13.285l 148.355,148.358c 3.455,3.454, 9.404,3.131, 13.286-0.738  C 200.088,196.328, 200.41,190.38, 196.956,186.924z" data-tags="tools, settings, generate, control, options"/>
<glyph unicode="" d="M 367.354,186.377c-25.373,25.373-78.035,68.299-111.871,102.132l-7.819-7.823l-71.725,71.724l-25.025,44.794  c0.00,0.00, 20.432,44.429, 110.223,47.777l-6.146,9.871C 212.762,466.148, 139.654,471.441, 66.822,404.004c0.00-19.876, 9.309-49.058-45.254-58.785  c-11.844-11.844-21.567-25.80-21.567-25.80s 17.65-35.459, 48.524-46.877l 27.037,22.869c0.00,0.00, 9.024,68.842, 70.35,26.969l 71.724-71.723  l-7.82-7.82c 33.833-33.835, 76.757-86.495, 102.132-111.87s 91.355-70.207, 137.879-144.643c 13.531,0.844, 29.186,3.81, 43.773,18.397  c 14.588,14.591, 17.553,30.241, 18.40,43.775C 437.565,95.02, 392.731,161.001, 367.354,186.377z" data-tags="hammer, tool, generate"/>
<glyph unicode="" d="M 504.607,57.114c-20.808,20.806-140.459,140.457-140.459,140.457s-50.551,0.568-62.824,56.996  c-14.351,8.522-28.332-5.50-39.876-15.935c-22.89,22.89-158.729,156.364-175.903,173.539c-17.16,17.176-24.699,39.822-24.699,39.822  L 21.235,480.00L0.00,458.777l 28.021-39.623c0.00,0.00, 22.646-7.538, 39.807-24.698C 85.00,377.282, 218.489,241.442, 241.378,218.552  c-10.434-11.531-24.457-25.525-15.936-39.878c 56.427-12.258, 56.996-62.825, 56.996-62.825s 119.649-119.637, 140.458-140.46  c 20.824-20.818, 57.025,8.111, 65.306,16.405C 496.513,0.089, 525.43,36.29, 504.607,57.114z M 468.435,11.575  c-4.791-4.788-12.101-5.188-16.391-0.911l-183.029,183.03c-4.262,4.263-3.864,11.603, 0.911,16.392  c 4.789,4.761, 12.128,5.158, 16.39,0.897L 469.33,27.969C 473.621,23.679, 473.224,16.364, 468.435,11.575z" data-tags="screwdriver, tool, fix, patch"/>
<glyph unicode="" d="M 128.00,384.00L 64.00,448.00L 32.00,448.00L 32.00,416.00L 96.00,352.00  zM 160.00,480.00L 192.00,480.00L 192.00,416.00L 160.00,416.00zM 288.00,320.00L 352.00,320.00L 352.00,288.00L 288.00,288.00zM 320.00,416.00L 320.00,448.00L 288.00,448.00L 224.00,384.00L 256.00,352.00  zM0.00,320.00L 64.00,320.00L 64.00,288.00L0.00,288.00zM 160.00,192.00L 192.00,192.00L 192.00,128.00L 160.00,128.00zM 32.00,192.00L 32.00,160.00L 64.00,160.00L 128.00,224.00L 96.00,256.00  zM 505.00,39.00L 186.941,357.059c-9.334,9.334-24.607,9.334-33.941,0.00L 122.941,327.00c-9.334-9.334-9.334-24.607,0.00-33.941L 441.00-25.00   c 9.334-9.334, 24.607-9.334, 33.941,0.00L 505.00,5.059C 514.334,14.393, 514.334,29.666, 505.00,39.00z M 240.00,208.00l-96.00,96.00l 32.00,32.00l 96.00-96.00L 240.00,208.00z" data-tags="wand, magic"/>
<glyph unicode="" d="M 258.181,254.091l 94.386,29.34L 256.00,351.723L 256.00,480.00 L 152.532,405.466L 32.00,448.00l 42.533-120.533L0.00,224.00l 128.00,0.00 l 68.567-96.568l 29.341,94.387  L 448.00-32.00l 64.00,64.00L 258.181,254.091z M 202.327,277.672l-19.579-62.986l-38.084,53.01L 78.712,267.696 l 39.447,52.861L 96.979,383.021l 62.464-21.182  l 52.862,39.447l0.00-65.952 l 53.008-38.084L 202.327,277.672z" data-tags="wand, magic"/>
<glyph unicode="" d="M 416.00,160.00L 384.00,128.00L 320.00,288.00L 256.00,96.00L 160.00,448.00L 96.00,128.00L0.00,128.00L0.00,96.00L 122.235,96.00L 164.794,308.803L 225.128,87.58L 252.937-14.385L 322.734,195.005L 354.288,116.115L 372.313,71.057L 429.256,128.00L 512.00,128.00L 512.00,160.00 z" data-tags="health, medicine, medical"/>
<glyph unicode="" d="M 448.00,352.00l-96.00,0.00 L 352.00,416.00 c0.00,17.60-14.40,32.00-32.00,32.00L 192.00,448.00 c-17.60,0.00-32.00-14.40-32.00-32.00l0.00-64.00 L 64.00,352.00 c-35.20,0.00-64.00-28.80-64.00-64.00l0.00-256.00 c0.00-35.20, 28.80-64.00, 64.00-64.00l 384.00,0.00   c 35.20,0.00, 64.00,28.80, 64.00,64.00L 512.00,288.00 C 512.00,323.20, 483.20,352.00, 448.00,352.00z M 192.00,416.00l 128.00,0.00 l0.00-64.00 L 192.00,352.00 L 192.00,416.00 z M 384.00,128.00l-96.00,0.00 l0.00-96.00 l-64.00,0.00 l0.00,96.00 l-96.00,0.00 l0.00,64.00 l 96.00,0.00 l0.00,96.00 l 64.00,0.00 l0.00-96.00 l 96.00,0.00   L 384.00,128.00 z" data-tags="aid, medicine, medical, kit, health"/>
<glyph unicode="" d="M 64.00,64.00L 96.00,64.00L 96.00,32.00L 64.00,32.00zM 384.00,384.00L 416.00,384.00L 416.00,352.00L 384.00,352.00zM 352.00,416.00L 384.00,416.00L 384.00,384.00L 352.00,384.00zM 64.00,128.00L 96.00,128.00L 96.00,96.00L 64.00,96.00zM 128.00,64.00L 160.00,64.00L 160.00,32.00L 128.00,32.00zM 416.00,352.00L 448.00,352.00L 448.00,320.00L 416.00,320.00zM 416.00,416.00L 448.00,416.00L 448.00,384.00L 416.00,384.00zM 478.864,446.863C 458.39,467.336, 430.105,480.00, 398.864,480.00c-13.969,0.00-27.344-2.538-39.695-7.167   c-15.27-5.723-28.975-14.644-40.292-25.957l-0.025-0.025L 33.15,161.149l-0.025-0.025c-11.313-11.317-20.234-25.022-25.957-40.292   C 2.538,108.48,0.00,95.105,0.00,81.137c0.00-31.241, 12.663-59.526, 33.137-80.00S 81.896-32.00, 113.137-32.00c 13.969,0.00, 27.344,2.538, 39.695,7.167   c 15.27,5.723, 28.975,14.644, 40.292,25.957l 0.025,0.025l 285.701,285.701l 0.025,0.025c 11.313,11.317, 20.234,25.022, 25.957,40.292   c 4.629,12.352, 7.167,25.727, 7.167,39.695C 512.00,398.104, 499.337,426.389, 478.864,446.863z M 192.00,32.00l-32.00,0.00 l0.00-32.00 l-32.00,0.00 l0.00,32.00 L 96.00,32.00 l0.00-32.00 L 64.00,0.00 l0.00,32.00 L 32.00,32.00 l0.00,32.00    l 32.00,0.00 l0.00,32.00 L 32.00,96.00 l0.00,32.00 l 32.00,0.00 l0.00,32.00 l 32.00,0.00 l0.00-32.00 l 32.00,0.00 l0.00-32.00 l 32.00,0.00 l0.00-32.00 l 32.00,0.00 L 192.00,32.00 z M 224.00,96.00l-96.00,96.00l 32.00,32.00l 96.00-96.00L 224.00,96.00z M 352.00,224.00l-96.00,96.00l 32.00,32.00l 96.00-96.00L 352.00,224.00z    M 480.00,384.00l-32.00,0.00 l0.00-32.00 l 32.00,0.00 l0.00-32.00 l-32.00,0.00 l0.00-32.00 l-32.00,0.00 l0.00,32.00 l-32.00,0.00 l0.00,32.00 l-32.00,0.00 L 352.00,384.00 l-32.00,0.00 L 320.00,416.00 l 32.00,0.00 L 352.00,448.00 l 32.00,0.00 l0.00-32.00 l 32.00,0.00 L 416.00,448.00 l 32.00,0.00 l0.00-32.00 l 32.00,0.00 L 480.00,384.00 zM 96.00,96.00L 128.00,96.00L 128.00,64.00L 96.00,64.00z" data-tags="patch, fix"/>
<glyph unicode="" d="M 480.00,320.00l 32.00,64.00L 512.00,448.00 l-48.00-96.00L 407.11,352.00 c-4.274,4.689-10.553,9.171-19.73,14.311l-70.76,35.377C 300.88,409.561, 273.60,416.00, 256.00,416.00    c-17.602,0.00-44.881-6.439-60.623-14.313l-70.758-35.377c-9.181-5.14-15.457-9.623-19.731-14.311L 48.00,351.999 L0.00,448.00l0.00-64.00 l 32.00-64.00l 64.00,0.00 l0.00-64.00 L0.00,224.00l0.00-32.00     l 96.00,32.00l0.00-96.00 L 64.00,128.00 L0.00-32.00l 32.00,0.00 l 51.199,128.00l 16.712,0.00 c 4.447-12.48, 12.241-24.669, 21.074-31.734l 110.022-88.021    C 237.882-29.253, 246.94-32.00, 256.00-32.00c 9.057,0.00, 18.113,2.747, 24.985,8.245l 110.022,88.021c 8.835,7.065, 16.628,19.254, 21.074,31.734    L 428.80,96.00 L 480.00-32.00l 32.00,0.00 l-64.00,160.00l-32.00,0.00 l0.00,96.00 l 96.00-32.00l0.00,32.00 l-96.00,32.00l0.00,64.00 L 480.00,320.00 z M 272.00,32.00l-32.00,0.00 L 240.00,352.00 l 32.00,0.00 L 272.00,32.00 zM 320.00,417.779L 320.00,448.00 c0.00,17.60-14.40,32.00-32.00,32.00l-64.00,0.00 c-17.602,0.00-32.00-14.40-32.00-32.00l0.00-30.221 C 210.129,425.884, 237.284,432.00, 256.00,432.00   C 274.713,432.00, 301.865,425.884, 320.00,417.779z" data-tags="bug, virus, error"/>
<glyph unicode="" d="M 512.00,192.00l0.00,32.00 l-96.645,0.00 c-2.931,36.343-15.893,69.513-35.835,96.125l 80.972,0.00 l 35.03,140.12l-31.045,7.761l-28.97-115.88l-87.34,0.00   c-0.446,0.347-0.898,0.687-1.349,1.028c 3.355,9.751, 5.181,20.211, 5.181,31.097C 352.00,437.131, 309.02,480.00, 256.00,480.00s-96.00-42.869-96.00-95.75  c0.00-10.886, 1.825-21.346, 5.181-31.097c-0.45-0.342-0.902-0.681-1.349-1.028l-87.34,0.00 l-28.97,115.88l-31.045-7.761l 35.03-140.12l 80.972,0.00   C 112.537,293.513, 99.576,260.343, 96.645,224.00L0.00,224.00 l0.00-32.00 l 96.685,0.00 c 1.901-22.832, 7.754-44.406, 16.819-63.875L 51.508,128.125 l-35.03-140.119  l 31.045-7.762l 28.97,115.881l 56.177,0.00 C 162.016,57.109, 206.368,32.25, 256.00,32.25s 93.983,24.859, 123.331,63.875l 56.177,0.00 l 28.97-115.881  l 31.045,7.762l-35.03,140.119l-61.996,0.00 c 9.065,19.469, 14.918,41.043, 16.818,63.875L 512.00,192.00 z" data-tags="bug, virus, error, _new"/>
<glyph unicode="" d="M 512.00,272.00L 512.00,400.00 c0.00,8.80-7.20,16.00-16.00,16.00L 16.00,416.00 C 7.20,416.00,0.00,408.80,0.00,400.00l0.00-128.00 c0.00-8.80, 7.20-16.00, 16.00-16.00l 60.175,0.00 L0.00,32.00l 96.00,0.00 l 32.646,96.00l 254.707,0.00 L 416.00,32.00  l 96.00,0.00 l-76.175,224.00L 496.00,256.00 C 504.80,256.00, 512.00,263.20, 512.00,272.00z M 416.00,384.00l-96.00-96.00l-96.00,0.00 l 96.00,96.00L 416.00,384.00 z M 128.00,384.00l 96.00,0.00 l-96.00-96.00L 32.00,288.00 L 128.00,384.00z M 372.472,160.00  L 139.529,160.00 l 32.646,96.00l 167.65,0.00 L 372.472,160.00z M 480.00,288.00l-64.00,0.00 l 64.00,64.00L 480.00,288.00 z" data-tags="construction, maintenance"/>
<glyph unicode="" d="M 448.00,32.00L 313.792,449.535C 308.406,466.291, 293.20,480.00, 280.00,480.00s-34.80,0.00-48.00,0.00s-28.407-13.709-33.792-30.465L 64.00,32.00L0.00,32.00 l0.00-64.00 l 512.00,0.00 l0.00,64.00 L 448.00,32.00 z   M 210.755,384.00l 90.489,0.00 l 20.572-64.00L 190.184,320.00 L 210.755,384.00z M 169.613,256.00l 172.775,0.00 l 20.571-64.00L 149.041,192.00 L 169.613,256.00z M 107.898,64.00l 20.571,64.00  l 255.061,0.00 l 20.571-64.00L 107.898,64.00 z" data-tags="cone, traffic, maintenance"/>
<glyph unicode="" d="M 224.00,192.00L 224.00,416.00 C 100.288,416.00,0.00,315.712,0.00,192.00s 100.288-224.00, 224.00-224.00s 224.00,100.288, 224.00,224.00c0.00,36.017-8.514,70.042-23.618,100.191   L 224.00,192.00zM 456.382,356.191C 419.606,429.599, 343.695,480.00, 256.00,480.00l0.00-224.00 L 456.382,356.191z" data-tags="pie, statistics, stats, chart, graph"/>
<glyph unicode="" d="M 224.00,416.00C 100.288,416.00,0.00,315.712,0.00,192.00s 100.288-224.00, 224.00-224.00s 224.00,100.288, 224.00,224.00L 224.00,192.00 L 224.00,416.00 zM 288.00,480.00l0.00-224.00 l 224.00,0.00 C 512.00,379.712, 411.712,480.00, 288.00,480.00z" data-tags="pie, statistics, stats, chart, graph"/>
<glyph unicode="" d="M 32.00-0.001L 32.00,480.00L0.00,480.00L0.00-32.00L 512.00-32.00L 512.00-0.001  zM 128.00,46.22c 27.492,0.00, 49.779,22.287, 49.779,49.779c0.00,13.647-5.494,26.012-14.39,35.005l 53.838,107.676   c 2.214-0.301, 4.475-0.46, 6.771-0.46c 7.906,0.00, 15.384,1.847, 22.022,5.129l 61.324-61.324c-3.281-6.642-5.129-14.117-5.129-22.025   c0.00-27.492, 22.288-49.779, 49.78-49.779s 49.779,22.287, 49.779,49.779c0.00,14.701-6.373,27.91-16.506,37.023l 58.862,137.345   c 1.274-0.098, 2.563-0.147, 3.863-0.147c 27.492,0.00, 49.78,22.287, 49.78,49.78c0.00,27.492-22.288,49.78-49.78,49.78   s-49.779-22.288-49.779-49.78c0.00-14.70, 6.373-27.91, 16.506-37.022l-58.862-137.346c-1.274,0.098-2.563,0.148-3.863,0.148   c-7.907,0.00-15.385-1.848-22.023-5.129l-61.324,61.324c 3.281,6.641, 5.128,14.116, 5.128,22.024c0.00,27.492-22.286,49.78-49.778,49.78   c-27.493,0.00-49.781-22.288-49.781-49.78c0.00-13.648, 5.495-26.012, 14.39-35.005l-53.837-107.677c-2.215,0.302-4.475,0.461-6.771,0.461   c-27.493,0.00-49.78-22.287-49.78-49.78C 78.22,68.507, 100.507,46.22, 128.00,46.22z" data-tags="graph, statistics, stats, pints, chart"/>
<glyph unicode="" d="M0.00,64.00L 512.00,64.00L 512.00,0.00L0.00,0.00zM 64.00,192.00L 128.00,192.00L 128.00,96.00L 64.00,96.00zM 160.00,320.00L 224.00,320.00L 224.00,96.00L 160.00,96.00zM 256.00,224.00L 320.00,224.00L 320.00,96.00L 256.00,96.00zM 352.00,416.00L 416.00,416.00L 416.00,96.00L 352.00,96.00z" data-tags="bars, statistics, stats, chart, graph"/>
</font>
</defs>
</svg>
